[MagicStar] Voice 2 EP08 [WEBDL] [1080p] [HULU] [JPN_SUB]

Category:
Date:
2021-09-13 18:11 UTC
Submitter:
Seeders:
11
Information:
Leechers:
5
File size:
1.3 GiB
Completed:
709
Info hash:
9ce5a30ac073227164788bd98164f413300deb72
HD 1080p from HULU JAPAN. ![alt text](https://i.ibb.co/ctDnH4D/c94d4ed0-eda9-4086-837d-a1410f9173b3.jpg) ![alt text](https://i.ibb.co/pnt3rZ6/Voice-2-EP08-1080p-HULU-WEB-DL-AAC2-0-H-264-Magic-Star-mkv.jpg) ``` General Unique ID : 37923881091528949517883203479077519471 (0x1C87DFB2AD7F19AAA4D0297C9EE2006F) Complete name : Voice.2.EP08.1080p.HULU.WEB-DL.AAC2.0.H.264-MagicStar.mkv Format : Matroska Format version : Version 4 File size : 1.31 GiB Duration : 45 min 55 s Overall bit rate : 4 089 kb/s Encoded date : UTC 2021-09-13 07:38:21 Writing application : mkvmerge v50.0.0 ('Awakenings') 64-bit Writing library : libebml v1.4.0 + libmatroska v1.6.2 Cover : Yes Attachments : cover.png Video ID : 1 Format : AVC Format/Info : Advanced Video Codec Format profile : High@L4 Format settings : CABAC / 4 Ref Frames Format settings, CABAC : Yes Format settings, Reference fra : 4 frames Codec ID : V_MPEG4/ISO/AVC Duration : 45 min 55 s Bit rate : 3 961 kb/s Width : 1 920 pixels Height : 1 080 pixels Display aspect ratio : 16:9 Frame rate mode : Constant Frame rate : 29.970 (29970/1000) FPS Original frame rate : 29.970 (30000/1001) FPS Color space : YUV Chroma subsampling : 4:2:0 Bit depth : 8 bits Scan type : Progressive Bits/(Pixel*Frame) : 0.064 Stream size : 1.27 GiB (97%) Default : Yes Forced : No Color range : Limited Color primaries : BT.709 Transfer characteristics : BT.709 Matrix coefficients : BT.709 Audio ID : 2 Format : AAC LC Format/Info : Advanced Audio Codec Low Complexity Codec ID : A_AAC-2 Duration : 45 min 55 s Bit rate : 125 kb/s Channel(s) : 2 channels Channel layout : L R Sampling rate : 48.0 kHz Frame rate : 46.875 FPS (1024 SPF) Compression mode : Lossy Stream size : 41.2 MiB (3%) Language : Japanese Default : Yes Forced : No ```

File list

Thank you so much. It will be pleasure from now on.