[UNARCHIVED] [Nijisanji EN - Rosemi Lovelock] UNARCHIVED GUERILLE STREM [2021-09-14] - 6IpiXXG6muQ

Category:
Date:
2021-09-13 17:10 UTC
Submitter:
Seeders:
3
Information:
Leechers:
1
File size:
1.0 GiB
Completed:
24
Info hash:
b7bcfcc69af0ea584570f4e62027d94bd5e52afe
![Thumbnail](https://i.ibb.co/Tvb4fcc/UNARCHIVED-Nijisanji-EN-Rosemi-Lovelock-UNARCHIVED-GUERILLE-STREM-2021-09-14-6-Ipi-XXG6mu-Q.webp) Format : MPEG-4 >Format profile : Base Media Codec ID : isom (isom/iso2/avc1/mp41) File size : 1 018 MiB Duration : 35 min 4 s Overall bit rate : 4 057 kb/s Writing application : Lavf59.4.102 Video >ID : 1 Format : AVC Format/Info : Advanced Video Codec Format profile : Main@L4.2 Format settings : CABAC / 1 Ref Frames Format settings, CABAC : Yes Format settings, Reference : 1 frame Format settings, GOP : M=1, N=60 Codec ID : avc1 Codec ID/Info : Advanced Video Coding Duration : 35 min 4 s Bit rate : 3 917 kb/s Width : 1 920 pixels Height : 1 080 pixels Display aspect ratio : 16:9 Frame rate mode : Variable Frame rate : 60.000 FPS Minimum frame rate : 58.824 FPS Maximum frame rate : 62.500 FPS Color space : YUV Chroma subsampling : 4:2:0 Bit depth : 8 bits Scan type : Progressive Bits/(Pixel*Frame) : 0.031 Stream size : 983 MiB (97%) Title : ISO Media file produced by Google Inc. Created on: 09/13/2021. Color range : Limited Color primaries : BT.709 Transfer characteristics : BT.709 Matrix coefficients : BT.709 Codec configuration box : avcC Audio >ID : 2 Format : AAC LC Format/Info : Advanced Audio Codec Low Complexity Codec ID : mp4a-40-2 Duration : 35 min 4 s Bit rate mode : Constant Bit rate : 128 kb/s Channel(s) : 2 channels Channel layout : L R Sampling rate : 44.1 kHz Frame rate : 43.066 FPS (1024 SPF) Compression mode : Lossy Stream size : 32.1 MiB (3%) Title : ISO Media file produced by Google Inc. Created on: 09/13/2021. Default : Yes Alternate group : 1

File list

  • [UNARCHIVED] [Nijisanji EN - Rosemi Lovelock] UNARCHIVED GUERILLE STREM [2021-09-14] - 6IpiXXG6muQ
    • [UNARCHIVED] [Nijisanji EN - Rosemi Lovelock] UNARCHIVED GUERILLE STREM [2021-09-14] - 6IpiXXG6muQ.description (28 Bytes)
    • [UNARCHIVED] [Nijisanji EN - Rosemi Lovelock] UNARCHIVED GUERILLE STREM [2021-09-14] - 6IpiXXG6muQ.live_chat.json (6.7 MiB)
    • [UNARCHIVED] [Nijisanji EN - Rosemi Lovelock] UNARCHIVED GUERILLE STREM [2021-09-14] - 6IpiXXG6muQ.mp4 (1018.0 MiB)
    • [UNARCHIVED] [Nijisanji EN - Rosemi Lovelock] UNARCHIVED GUERILLE STREM [2021-09-14] - 6IpiXXG6muQ.webp (30.0 KiB)