[IrizaRaws] D4DJ First Mix (BDRip 1920x1080 x264 10bit FLAC)

Category:
Date:
2021-09-13 10:43 UTC
Submitter:
Seeders:
2
Information:
No information.
Leechers:
8
File size:
33.0 GiB
Completed:
56
Info hash:
c7217732a212da5f7f8d2db8e08eecae4eb6621d
Hello! My rips are made from Japanese BDMV, unless stated otherwise. In terms of video quality, my raws should be comparable to ReinForce (since I started from their settings, and then modified it). I don’t use AA, blur, denoise and other such “enhancements”. Basically, the idea of my encodes will be: as similar to BDMV as possible, while reducing size 3-4 times. Also I will rip Audio Commentaries, interview’s and such things (everything, that’s on BD). Again, If you found any Bugs, mistakes, problems etc. Please comment! If needed I will reencode. About this Anime: https://myanimelist.net/anime/39681 https://anidb.net/anime/14815 SEED PLEASE! Acknowledgments for BDMV: 种田梨沙 Acknowledgments for Soundtrack: 無損音樂及Hi-res聲明 OP CD 由天使動漫的分享者的謝禮,合購區及偷跑區的論壇主導出資分享 Hi-res ED 由天使動漫StarDivine自購 https://www.tsdm39.net/forum.php?mod=viewthread&tid=1038603 ED CD 由天使動漫的分享者的謝禮,合購區及偷跑區的論壇主導出資分享 Hi-res ED 由天使動漫StarDivine自購 https://www.tsdm39.net/forum.php?mod=viewthread&tid=1038604 OP & ED Special CD Happy Around! Ver. 由天使動漫Dragunity自購 https://www.tsdm39.net/forum.php?mod=viewthread&tid=1044007 OP & ED Special CD Peaky P-key Ver. 由天使動漫小醉虾自購 https://www.tsdm39.net/forum.php?mod=viewthread&tid=1047356 OP & ED Special CD Photon Maiden Ver. 由天使動漫神代小祈自購 https://www.tsdm39.net/forum.php?mod=viewthread&tid=1040115 SHUFFLE HEART BEAT CD 由天使動漫的分享者的謝禮,合購區及偷跑區的論壇主導出資分享 無敵☆moment CD 由天使動漫的分享者的謝禮,合購區及偷跑區的論壇主導出資分享 Be with the world CD 由天使動漫的分享者的謝禮,合購區及偷跑區的論壇主導出資分享 BOOM-BOOM SHAKE! CD 由天使動漫的分享者的謝禮,合購區及偷跑區的論壇主導出資分享 クライノイド CD 由天使動漫的分享者的謝禮,合購區及偷跑區的論壇主導出資分享 プティプランス CD 由天使動漫的分享者的謝禮,合購區及偷跑區的論壇主導出資分享 動漫音樂微博,最新自購無損音樂更新情況 https://weibo.com/dmmusic 天使動漫TSDM自購,天使動漫音樂區原貼鏈接 https://www.tsdm39.net/forum.php?mod=forumdisplay&fid=247 MediaInfo: General Unique ID : 260767250260234637945399960936855680751 (0xC42DF21179FD8D9CC3FBF9EB8394B6EF) Complete name : D:\work\Rip\D4DJ First Mix\[IrizaRaws] D4DJ First Mix (BDRip 1920x1080 x264 10bit FLAC)\[IrizaRaws] D4DJ First Mix - 01 (BDRip 1920x1080 x264 10bit FLAC).mkv Format : Matroska Format version : Version 4 / Version 2 File size : 1.59 GiB Duration : 23 min 41 s Overall bit rate mode : Variable Overall bit rate : 9 637 kb/s Encoded date : UTC 2021-09-11 14:04:49 Writing application : mkvmerge v60.0.0 ('Are We Copies?') 64-bit Writing library : libebml v1.4.2 + libmatroska v1.6.4 Video ID : 1 Format : AVC Format/Info : Advanced Video Codec Format profile : High 10@L5.2 Format settings : CABAC / 8 Ref Frames Format settings, CABAC : Yes Format settings, RefFrames : 8 frames Codec ID : V_MPEG4/ISO/AVC Duration : 23 min 41 s Bit rate : 8 096 kb/s Width : 1 920 pixels Height : 1 080 pixels Display aspect ratio : 16:9 Frame rate mode : Constant Frame rate : 23.976 (24000/1001) FPS Color space : YUV Chroma subsampling : 4:2:0 Bit depth : 10 bits Scan type : Progressive Bits/(Pixel*Frame) : 0.163 Stream size : 1.34 GiB (84%) Writing library : x264 core 164 r3065 ae03d92 Encoding settings : cabac=1 / ref=8 / deblock=1:-2:-2 / analyse=0x3:0x113 / me=umh / subme=9 / psy=1 / psy_rd=0.70:0.00 / mixed_ref=0 / me_range=32 / chroma_me=1 / trellis=2 / 8x8dct=1 / cqm=0 / deadzone=21,11 / fast_pskip=0 / chroma_qp_offset=-2 / threads=22 / lookahead_threads=3 / sliced_threads=0 / nr=0 / decimate=1 / interlaced=0 / bluray_compat=0 / constrained_intra=0 / bframes=9 / b_pyramid=2 / b_adapt=2 / b_bias=0 / direct=0 / weightb=1 / open_gop=0 / weightp=2 / keyint=250 / keyint_min=23 / scenecut=40 / intra_refresh=0 / rc=crf / mbtree=0 / crf=17.5 / qcomp=1.00 / qpmin=0 / qpmax=40 / qpstep=4 / ip_ratio=1.40 / pb_ratio=1.30 / aq=1:1.00 Default : Yes Forced : No Audio ID : 2 Format : FLAC Format/Info : Free Lossless Audio Codec Codec ID : A_FLAC Duration : 23 min 41 s Bit rate mode : Variable Bit rate : 1 539 kb/s Channel(s) : 2 channels Channel positions : Front: L R Sampling rate : 48.0 kHz Frame rate : 11.719 FPS (4096 SPF) Bit depth : 24 bits Stream size : 261 MiB (16%) Title : Main FLAC 2.0 Writing library : libFLAC 1.3.3 (UTC 2019-08-04) Language : Japanese Default : Yes Forced : No Menu 00:00:00.000 : Intro 00:00:56.056 : OP 00:02:26.020 : Part A 00:13:10.998 : Part B 00:21:55.022 : ED 00:23:25.028 : Preview

File list

  • [IrizaRaws] D4DJ First Mix (BDRip 1920x1080 x264 10bit FLAC)
    • Bonus
      • Menu
        • [IrizaRaws] D4DJ First Mix Menu PNG - 01.png (1.1 MiB)
        • [IrizaRaws] D4DJ First Mix Menu PNG - 02.png (1.2 MiB)
        • [IrizaRaws] D4DJ First Mix Menu PNG - 03.png (1.1 MiB)
        • [IrizaRaws] D4DJ First Mix Menu PNG - 04.png (1.1 MiB)
        • [IrizaRaws] D4DJ First Mix Menu PNG - 05.png (969.0 KiB)
        • [IrizaRaws] D4DJ First Mix Menu PNG - 06.png (1.2 MiB)
      • NC
        • [IrizaRaws] D4DJ First Mix EP13 Live NC Ver (BDRip 1920x1080 x264 10bit FLAC).mkv (273.3 MiB)
      • RL
        • [IrizaRaws] D4DJ First Mix RL - 01 Happy Around (BDRip 1920x1080 x264 10bit FLAC).mkv (2.1 GiB)
        • [IrizaRaws] D4DJ First Mix RL - 02 Peaky P-key (BDRip 1920x1080 x264 10bit FLAC).mkv (1.8 GiB)
        • [IrizaRaws] D4DJ First Mix RL - 03 Photon Maiden (BDRip 1920x1080 x264 10bit FLAC).mkv (1.6 GiB)
        • [IrizaRaws] D4DJ First Mix RL - 04 Merm4id (BDRip 1920x1080 x264 10bit FLAC).mkv (1.9 GiB)
        • [IrizaRaws] D4DJ First Mix RL - 05 Nondo (BDRip 1920x1080 x264 10bit FLAC).mkv (1.4 GiB)
        • [IrizaRaws] D4DJ First Mix RL - 06 Lyrical Lily (BDRip 1920x1080 x264 10bit FLAC).mkv (2.1 GiB)
      • [IrizaRaws] D4DJ First Mix Logo - 01 (BDRip 1920x1080 x264 10bit FLAC).mkv (589.7 KiB)
      • [IrizaRaws] D4DJ First Mix Logo - 02 (BDRip 1920x1080 x264 10bit FLAC).mkv (150.2 KiB)
    • Soundtrack
    • [IrizaRaws] D4DJ First Mix - 01 (BDRip 1920x1080 x264 10bit FLAC).mkv (1.6 GiB)
    • [IrizaRaws] D4DJ First Mix - 02 (BDRip 1920x1080 x264 10bit FLAC).mkv (1.2 GiB)
    • [IrizaRaws] D4DJ First Mix - 03 (BDRip 1920x1080 x264 10bit FLAC).mkv (1.4 GiB)
    • [IrizaRaws] D4DJ First Mix - 04 (BDRip 1920x1080 x264 10bit FLAC).mkv (1.5 GiB)
    • [IrizaRaws] D4DJ First Mix - 05 (BDRip 1920x1080 x264 10bit FLAC).mkv (1.4 GiB)
    • [IrizaRaws] D4DJ First Mix - 06 (BDRip 1920x1080 x264 10bit FLAC).mkv (1.3 GiB)
    • [IrizaRaws] D4DJ First Mix - 07 (BDRip 1920x1080 x264 10bit FLAC).mkv (1.4 GiB)
    • [IrizaRaws] D4DJ First Mix - 08 (BDRip 1920x1080 x264 10bit FLAC).mkv (1.5 GiB)
    • [IrizaRaws] D4DJ First Mix - 09 (BDRip 1920x1080 x264 10bit FLAC).mkv (1.5 GiB)
    • [IrizaRaws] D4DJ First Mix - 10 (BDRip 1920x1080 x264 10bit FLAC).mkv (1.6 GiB)
    • [IrizaRaws] D4DJ First Mix - 11 (BDRip 1920x1080 x264 10bit FLAC).mkv (1.4 GiB)
    • [IrizaRaws] D4DJ First Mix - 12 (BDRip 1920x1080 x264 10bit FLAC).mkv (1.2 GiB)
    • [IrizaRaws] D4DJ First Mix - 13 (BDRip 1920x1080 x264 10bit FLAC).mkv (2.0 GiB)