[UNARCHIVED] [Nijisanji EN - Petra Gurin] 【UNARCHIVED GUERILLA】idk [2021-09-12] - 4XEKXY2dQss

Category:
Date:
2021-09-13 03:55 UTC
Submitter:
Seeders:
2
Information:
Leechers:
2
File size:
2.2 GiB
Completed:
15
Info hash:
eab25c1e67232b7a5dbbc0723e77831542bad2b6
![Thumbnail](https://pbs.twimg.com/media/E_Drzl3VEAArIGM?format=jpg&name=large) Format : MPEG-4 >Format profile : Base Media Codec ID : isom (isom/iso2/avc1/mp41) File size : 2.17 GiB Duration : 2 h 22 min Overall bit rate : 2 181 kb/s Movie name : 【UNARCHIVED GUERILLA】idk【NIJISANJI EN | Petra Gurin】 Performer : Petra Gurin【NIJISANJI EN】 Recorded date : 20210912 Writing application : Lavf58.76.100 Cover : Yes Comment : https://www.youtube.com/watch?v=4XEKXY2dQss / / dsklfjakdsfdsjfls / / / • ✦ ──────✧ ❅ ✧────── ✦ • / / / ◇ StreamLabs Donations / https://streamlabs.com/gurinpetra / / / ◇ Stream Rules / ー Please be kind and respectful to one another ♡ / ー Do not bring up unrelated parties unless I mention them first (likewise, do not bring me up in other streams unless I am mentioned!) / ー Do not spam the same message over and over again!! / ー I will ask chat if I need help in a game! Otherwise, please refrain from telling me what to do/spoiling game content🙏 / ー Have fun!!!!! Thank you for being here! / / / ◇「OBSYDIA」Members / / 🐧❄️ Petra Gurin (ペトラ・グリン) / https://twitter.com/Petra_Gurin/ / https://www.youtube.com/channel/UCgA2jKRkqpY_8eysPUs8sjw/ / / 🏆 Selen Tatsuki (セレン 龍月) / https://twitter.com/Selen_Tatsuki/ / https://www.youtube.com/channel/UCV1xUwfM2v2oBtT3JNvic3w/ / / 🌹 Rosemi Lovelock (ロゼミ・ラブロック) / https://twitter.com/Rosemi_Lovelock/ / https://www.youtube.com/channel/UC4WvIIAo89_AzGUh1AZ6Dkg/ / / / ◇ For more info on NIJISANJI! / Twitter (EN) → https://twitter.com/NIJISANJI_World/ / Website (EN) → https://www.nijisanji.jp/en/ / Official channel (EN) → https://www.youtube.com/channel/UC-JSeFfovhNsEhftt1WHMvg/ / Official channel (JP) → https://www.youtube.com/channel/UCX7YkU9nEeaoZbkVLVajcMg/ / Reddit → https://www.reddit.com/r/Nijisanji/ / / / ◇ Credits / BGM - OtoLogic (https://otologic.jp/) / ED Illust - @mogyiu / OP + Donation Illust - @lost_yth / / #NIJISANJI_EN #NIJISANJI #にじさんじ #PetraGurin Video >ID : 3 Format : AVC Format/Info : Advanced Video Codec Format profile : Main@L4 Format settings : CABAC / 1 Ref Frames Format settings, CABAC : Yes Format settings, Reference : 1 frame Codec ID : avc1 Codec ID/Info : Advanced Video Coding Duration : 2 h 22 min Bit rate : 2 044 kb/s Width : 1 920 pixels Height : 1 080 pixels Display aspect ratio : 16:9 Frame rate mode : Variable Frame rate : 30.000 FPS Minimum frame rate : 29.412 FPS Maximum frame rate : 30.303 FPS Color space : YUV Chroma subsampling : 4:2:0 Bit depth : 8 bits Scan type : Progressive Bits/(Pixel*Frame) : 0.033 Stream size : 2.04 GiB (94%) Title : ISO Media file produced by Google Inc. Created on: 09/11/2021. Color range : Limited Color primaries : BT.709 Transfer characteristics : BT.709 Matrix coefficients : BT.709 Codec configuration box : avcC Audio >ID : 1 Format : AAC LC Format/Info : Advanced Audio Codec Low Complexity Codec ID : mp4a-40-2 Duration : 2 h 22 min Bit rate mode : Constant Bit rate : 128 kb/s Channel(s) : 2 channels Channel layout : L R Sampling rate : 44.1 kHz Frame rate : 43.066 FPS (1024 SPF) Compression mode : Lossy Stream size : 131 MiB (6%) Title : ISO Media file produced by Google Inc. Created on: 09/11/2021. Default : Yes Alternate group : 1

File list

  • [UNARCHIVED] [Nijisanji EN - Petra Gurin] 【UNARCHIVED GUERILLA】idk [2021-09-12] - 4XEKXY2dQss.mp4 (2.2 GiB)