[MagicStar] TOKYO MER ~Hashiranai Kinkyuu kyuumeishitsu~ EP06 [WEBDL] [1080p] [PARAVI]

Category:
Date:
2021-09-13 02:15 UTC
Submitter:
Seeders:
7
Information:
Leechers:
2
File size:
277.6 MiB
Completed:
513
Info hash:
331c93ba1ac24189e74626b605518fa852bde971
HD 1080p from Paravi. Paravi Original Story. ![alt text](https://i.ibb.co/MSyr1LD/95112234600.jpg) ![alt text](https://i.ibb.co/Pjg43KM/TOKYO-MER-Hashiranai-Kinkyuu-kyuumeishitsu-EP06-1080p-PARAVI-WEB-DL-AAC2-0-H-264-Magic-Star-mkv.jpg) ``` General Unique ID : 253044356795129010351564402519053786058 (0xBE5E9205CCB1B4A76616A65297E55BCA) Complete name : TOKYO.MER.Hashiranai.Kinkyuu.kyuumeishitsu.EP06.1080p.PARAVI.WEB-DL.AAC2.0.H.264-MagicStar.mkv Format : Matroska Format version : Version 4 File size : 278 MiB Duration : 6 min 45 s Overall bit rate : 5 739 kb/s Encoded date : UTC 2021-09-13 02:05:50 Writing application : mkvmerge v50.0.0 ('Awakenings') 64-bit Writing library : libebml v1.4.0 + libmatroska v1.6.2 Cover : Yes Attachments : cover.png Video ID : 1 Format : AVC Format/Info : Advanced Video Codec Format profile : High@L4 Format settings : CABAC / 3 Ref Frames Format settings, CABAC : Yes Format settings, Reference fra : 3 frames Codec ID : V_MPEG4/ISO/AVC Duration : 6 min 45 s Bit rate mode : Constant Bit rate : 5 659 kb/s Nominal bit rate : 5 959 kb/s Width : 1 920 pixels Height : 1 080 pixels Display aspect ratio : 16:9 Frame rate mode : Constant Frame rate : 29.970 (29970/1000) FPS Original frame rate : 29.970 (30000/1001) FPS Color space : YUV Chroma subsampling : 4:2:0 Bit depth : 8 bits Scan type : Progressive Bits/(Pixel*Frame) : 0.091 Stream size : 274 MiB (99%) Default : Yes Forced : No Color range : Limited Color primaries : BT.709 Transfer characteristics : BT.709 Matrix coefficients : BT.709 Audio ID : 2 Format : AAC LC Format/Info : Advanced Audio Codec Low Complexity Codec ID : A_AAC-2 Duration : 6 min 45 s Bit rate : 64.0 kb/s Channel(s) : 2 channels Channel layout : L R Sampling rate : 48.0 kHz Frame rate : 46.875 FPS (1024 SPF) Compression mode : Lossy Stream size : 3.09 MiB (1%) Language : Japanese Default : Yes Forced : No ```

File list

Thank you so much. It will be pleasure from now on.