Fate.Stay.Night.Heaven's.Feel.III.Spring.Song.2020.1080p.Blu-Ray.10-Bit.Dual-Audio.DTS-HD.x265-iAHD.mkv

Category:
Date:
2021-09-12 15:19 UTC
Submitter:
Seeders:
2
Information:
No information.
Leechers:
0
File size:
8.1 GiB
Completed:
268
Info hash:
9dfaf5589701b3426cd98ecaac32c960c1ff6c1c
Video ID : 1 Format : HEVC Format/Info : High Efficiency Video Coding Format profile : Main 10@L5@Main Codec ID : V_MPEGH/ISO/HEVC Duration : 2 h 2 min Bit rate : 5 438 kb/s Width : 1 920 pixels Height : 1 080 pixels Display aspect ratio : 16:9 Frame rate mode : Constant Frame rate : 23.976 (24000/1001) FPS Color space : YUV Chroma subsampling : 4:2:0 Bit depth : 10 bits Bits/(Pixel*Frame) : 0.109 Stream size : 4.64 GiB (58%) Writing library : x265 3.2.1+1-b5c86a64bbbe:[Windows][GCC 9.2.0][64 bit] 10bit Encoding settings : cpuid=1111039 / frame-threads=4 / numa-pools=16 / wpp / no-pmode / no-pme / no-psnr / no-ssim / log-level=2 / input-csp=1 / input-res=1920x1080 / interlace=0 / total-frames=0 / level-idc=0 / high-tier=1 / uhd-bd=0 / ref=6 / no-allow-non-conformance / no-repeat-headers / annexb / no-aud / no-hrd / info / hash=0 / no-temporal-layers / open-gop / min-keyint=24 / keyint=240 / gop-lookahead=0 / bframes=16 / b-adapt=2 / b-pyramid / bframe-bias=0 / rc-lookahead=50 / lookahead-slices=4 / scenecut=40 / radl=0 / no-splice / no-intra-refresh / ctu=32 / min-cu-size=8 / no-rect / no-amp / max-tu-size=32 / tu-inter-depth=1 / tu-intra-depth=3 / limit-tu=0 / rdoq-level=2 / dynamic-rd=0.00 / no-ssim-rd / signhide / tskip / nr-intra=0 / nr-inter=0 / no-constrained-intra / no-strong-intra-smoothing / max-merge=3 / limit-refs=3 / limit-modes / me=3 / subme=3 / merange=57 / temporal-mvp / no-hme / weightp / no-weightb / no-analyze-src-pics / deblock=1:1 / no-sao / no-sao-non-deblock / rd=4 / selective-sao=0 / no-early-skip / rskip / no-fast-intra / tskip-fast / no-cu-lossless / no-b-intra / no-splitrd-skip / rdpenalty=0 / psy-rd=0.80 / psy-rdoq=2.00 / no-rd-refine / no-lossless / cbqpoffs=0 / crqpoffs=0 / rc=crf / crf=16.0 / qcomp=0.60 / qpstep=4 / stats-write=0 / stats-read=0 / ipratio=1.40 / pbratio=1.30 / aq-mode=3 / aq-strength=1.25 / cutree / zone-count=0 / no-strict-cbr / qg-size=32 / no-rc-grain / qpmax=69 / qpmin=0 / no-const-vbv / sar=1 / overscan=0 / videoformat=5 / range=0 / colorprim=1 / transfer=1 / colormatrix=1 / chromaloc=0 / display-window=0 / cll=0,0 / min-luma=0 / max-luma=1023 / log2-max-poc-lsb=8 / vui-timing-info / vui-hrd-info / slices=1 / no-opt-qp-pps / no-opt-ref-list-length-pps / no-multi-pass-opt-rps / scenecut-bias=0.05 / no-opt-cu-delta-qp / no-aq-motion / no-hdr / no-hdr-opt / no-dhdr10-opt / no-idr-recovery-sei / analysis-reuse-level=5 / scale-factor=0 / refine-intra=0 / refine-inter=0 / refine-mv=1 / refine-ctu-distortion=0 / no-limit-sao / ctu-info=0 / no-lowpass-dct / refine-analysis-type=0 / copy-pic=1 / max-ausize-factor=1.0 / no-dynamic-refine / no-single-sei / no-hevc-aq / no-svt / no-field / qp-adaptation-range=1.00 Language : Japanese Default : Yes Forced : No Color range : Limited Color primaries : BT.709 Transfer characteristics : BT.709 Matrix coefficients : BT.709 Audio #1 ID : 2 Format : DTS XLL Format/Info : Digital Theater Systems Commercial name : DTS-HD Master Audio Codec ID : A_DTS Duration : 2 h 2 min Bit rate mode : Variable Bit rate : 1 940 kb/s Channel(s) : 6 channels Channel layout : C L R Ls Rs LFE Sampling rate : 48.0 kHz Frame rate : 93.750 FPS (512 SPF) Bit depth : 16 bits Compression mode : Lossless Stream size : 1.65 GiB (21%) Language : English Default : Yes Forced : No Audio #2 ID : 3 Format : DTS XLL Format/Info : Digital Theater Systems Commercial name : DTS-HD Master Audio Codec ID : A_DTS Duration : 2 h 2 min Bit rate mode : Variable Bit rate : 1 927 kb/s Channel(s) : 6 channels Channel layout : C L R Ls Rs LFE Sampling rate : 48.0 kHz Frame rate : 93.750 FPS (512 SPF) Bit depth : 16 bits Compression mode : Lossless Stream size : 1.64 GiB (20%) Language : Japanese Default : Yes Forced : No Text #1 ID : 4 Format : PGS Codec ID : S_HDMV/PGS Codec ID/Info : Picture based subtitle format used on BDs/HD-DVDs Duration : 1 h 20 min Bit rate : 77 b/s Count of elements : 12 Stream size : 45.6 KiB (0%) Title : Signs Language : English Default : Yes Forced : Yes Text #2 ID : 5 Format : PGS Codec ID : S_HDMV/PGS Codec ID/Info : Picture based subtitle format used on BDs/HD-DVDs Duration : 1 h 56 min Bit rate : 146 kb/s Count of elements : 7197 Stream size : 122 MiB (1%) Title : Dialogue Language : English Default : No Forced : No Menu 00:00:00.000 : Chapter 01 00:11:12.172 : Chapter 02 00:13:08.121 : Chapter 03 00:19:13.194 : Chapter 04 00:24:13.619 : Chapter 05 00:27:22.391 : Chapter 06 00:32:41.710 : Chapter 07 00:39:15.436 : Chapter 08 00:42:31.299 : Chapter 09 00:49:30.801 : Chapter 10 00:51:40.097 : Chapter 11 00:55:08.555 : Chapter 12 00:59:36.073 : Chapter 13 01:03:40.608 : Chapter 14 01:06:36.075 : Chapter 15 01:09:36.673 : Chapter 16 01:12:39.522 : Chapter 17 01:20:16.103 : Chapter 18 01:25:13.609 : Chapter 19 01:29:54.180 : Chapter 20 01:38:00.500 : Chapter 21 01:46:58.037 : Chapter 22 01:52:06.178 : Chapter 23 01:57:21.243 : Chapter 24

File list

  • Fate.Stay.Night.Heaven's.Feel.III.Spring.Song.2020.1080p.Blu-Ray.10-Bit.Dual-Audio.DTS-HD.x265-iAHD.mkv (8.1 GiB)
any possibility you can seed https://nyaa.si/view/920910? It is not on your page but someone has it up with your tags it seems
I believe you did it so thank you so much

iAHQ (uploader)

User
@Pikachoo504 np :)
Appreciate this!!!
Another great release as per usual IAHQ, much appreciated😍
Hi everyone, just wanted to give an update on my Google drive links with IAHD releases. Google just added a 5TB plan so i've moved to that and am in the process of moving all the stuff from my second drive to my main so everything will be consolidated there with all the latest stuff. Everything will be completed by Friday by the looks of it. Enjoy Movies are here https://drive.google.com/folderview?id=1laFXSXru1RtMj029iRxxn-Kr4YFJ3DUc Series are here https://drive.google.com/folderview?id=19BzwPWw9YOQ9CVVmQe6ixGgY7FCnr5Gl
@PS$Trophies Thanks a lot. Came here to comment if seeding would be possible for a few series and here you have linked it in DDL.
No problem Vikrant9760. iAHQ is my favourite uploader on nyaa by a mile and to relieve some of the constant please seed this comments they get I'm happy to help out . I'm still in the process of uploading 2TB worth of more series including all of Attack on Titan, Code Geass, Food Wars, Black Clover, Dragon Ball Super, Haikyuu!! and a whole lot more but with my speeds it's gonna be a while lol. I also like to double check everything before I put them into my DDL files so if you can wait they will be there eventually. Armed Girls is the only x265 release from iAHQ I don't have. Everything else will be there eventually. I'll be adding a text file with stuff I'm uploading and any changes made to keep everyone in the loop as to what's going on. The only thing I ask is to help seed stuff that's on my DDL but have no seeds here in return 😁 If anyone wants to help out that has better upload speeds than me (20MB upload oof) I'll give them full access to the drive so they can speed things up but if not I'm happy to go solo 😊 My Discord is PS4 Trophies#3018 so feel free to contact me there.
can you do Saga of Tanya the Evil please
If someone happens to still have the Cross Ange release from iAHQ kicking about could they seed it so I can add it to my google drive for sharing here. I tried sourcing it but no luck 🥺 Thanks x