Ai Furihata - Moonrise BDMV [2020.09.23] 降幡愛 bluray

Category:
Date:
2021-08-28 00:23 UTC
Submitter:
Seeders:
2
Information:
No information.
Leechers:
0
File size:
6.1 GiB
Completed:
42
Info hash:
bf4bdac597f6b817e22083dce40ecc9877ac5cdd
huge thanks to ikouraiba Format : BDAV Format/Info : Blu-ray Video File size : 1.22 GiB Duration : 4 min 7 s Overall bit rate mode : Variable Overall bit rate : 42.4 Mb/s Maximum Overall bit rate : 48.0 Mb/s Video ID : 4113 (0x1011) Menu ID : 1 (0x1) Format : AVC Format/Info : Advanced Video Codec Format profile : High@L4.1 Format settings, CABAC : Yes Format settings, ReFrames : 4 frames Codec ID : 27 Duration : 4 min 7 s Bit rate mode : Variable Bit rate : 38.4 Mb/s Maximum bit rate : 40.0 Mb/s Width : 1 920 pixels Height : 1 080 pixels Display aspect ratio : 16:9 Frame rate : 29.970 (30000/1001) FPS Color space : YUV Chroma subsampling : 4:2:0 Bit depth : 8 bits Scan type : MBAFF Scan type, store method : Interleaved fields Scan order : Top Field First Bits/(Pixel*Frame) : 0.618 Stream size : 1.11 GiB (91%) Audio ID : 4352 (0x1100) Menu ID : 1 (0x1) Format : PCM Format settings, Endianness : Big Format settings, Sign : Signed Muxing mode : Blu-ray Codec ID : 128 Duration : 4 min 7 s Bit rate mode : Constant Bit rate : 2 304 kb/s Channel(s) : 2 channels Channel positions : Front: L R Sampling rate : 48.0 kHz Bit depth : 24 bits Stream size : 67.9 MiB (5%) ![urmum](https://i.imgur.com/V8bxAIG.gif "urmum")

File list

  • Ai Furihata - Moonrise - 2020-09-23 (Blu-ray - h264 - Lossless)
    • BDMV
      • BACKUP
        • CLIPINF
          • 00000.clpi (444 Bytes)
          • 00001.clpi (364 Bytes)
          • 00002.clpi (2.1 KiB)
          • 00003.clpi (2.1 KiB)
          • 00004.clpi (5.0 KiB)
          • 00005.clpi (424 Bytes)
          • 00006.clpi (936 Bytes)
          • 00007.clpi (292 Bytes)
          • 00008.clpi (292 Bytes)
        • PLAYLIST
          • 00000.mpls (252 Bytes)
          • 00001.mpls (590 Bytes)
          • 00002.mpls (240 Bytes)
          • 00003.mpls (240 Bytes)
          • 00004.mpls (268 Bytes)
          • 00099.mpls (1.1 KiB)
        • MovieObject.bdmv (830 Bytes)
        • index.bdmv (156 Bytes)
      • CLIPINF
        • 00000.clpi (444 Bytes)
        • 00001.clpi (364 Bytes)
        • 00002.clpi (2.1 KiB)
        • 00003.clpi (2.1 KiB)
        • 00004.clpi (5.0 KiB)
        • 00005.clpi (424 Bytes)
        • 00006.clpi (936 Bytes)
        • 00007.clpi (292 Bytes)
        • 00008.clpi (292 Bytes)
      • META
        • DL
          • bdmt_jpn.xml (561 Bytes)
          • furihata_ai_Moonrise_BD_META_L.jpg (112.1 KiB)
          • furihata_ai_Moonrise_BD_META_S.jpg (62.3 KiB)
      • PLAYLIST
        • 00000.mpls (252 Bytes)
        • 00001.mpls (590 Bytes)
        • 00002.mpls (240 Bytes)
        • 00003.mpls (240 Bytes)
        • 00004.mpls (268 Bytes)
        • 00099.mpls (1.1 KiB)
      • STREAM
        • 00000.m2ts (22.5 MiB)
        • 00001.m2ts (15.8 MiB)
        • 00002.m2ts (1.2 GiB)
        • 00003.m2ts (1.2 GiB)
        • 00004.m2ts (3.3 GiB)
        • 00005.m2ts (24.0 MiB)
        • 00006.m2ts (302.1 MiB)
        • 00007.m2ts (114.0 KiB)
        • 00008.m2ts (120.0 KiB)
      • MovieObject.bdmv (830 Bytes)
      • index.bdmv (156 Bytes)
    • CERTIFICATE
      • BACKUP
        • id.bdmv (104 Bytes)
      • id.bdmv (104 Bytes)