Tonikaku.Kawaii.2020.S01.CUSTOM.MULTi.1080p.BluRay.x265-SceneGuardians (VF/VOSTFR)

Category:
Date:
2021-08-22 16:34 UTC
Submitter:
Seeders:
0
Information:
Leechers:
0
File size:
2.9 GiB
Completed:
32
Info hash:
5c4af50de9749445b6d48d5f2617d7c24f61eb36
![alt text](https://cdn.myanimelist.net/images/anime/1613/108722l.webp?_gl=1*1cqwn79*_ga*MTI3NDUxODI5NS4xNjA3OTQxNjk2*_ga_26FEP9527K*MTYyOTY0OTc5Ni4xNDYuMS4xNjI5NjQ5OTEzLjM1) Source Video : [Anime Time] https://nyaa.si/view/1390336 (Merci) Source Audio et Subs FR : [matheousse] https://nyaa.si/view/1393283 (Merci) General Unique ID : 117972914611604376009753361300325660548 (0x58C0C1C364A4EFCC8F4E7DB266F3F784) Complete name : Tonikaku.Kawaii.S01E01.CUSTOM.MULTi.1080p.BluRay.x265-SceneGuardians.mkv Format : Matroska Format version : Version 4 File size : 300 MiB Duration : 23 min 41 s Overall bit rate : 1 774 kb/s Encoded date : UTC 2021-08-22 16:22:03 Writing application : mkvmerge v60.0.0 ('Are We Copies?') 64-bit Writing library : libebml v1.4.2 + libmatroska v1.6.4 Attachments : a_domino.ttf / arialbd_4.ttf / arialn_1.ttf / ARIALNB_0.ttf / BLACKPLOTAN.ttf / DAVESHAND-PLAIN.ttf / FiveBoroughsHandwriting.ttf / GandhiSans-Bold.otf / GandhiSans-BoldItalic.otf / GosmickSans.ttf / GothamRounded-Bold_0.ttf / Handlee-Regular.ttf / phitradesignHandwritten-Thin.ttf / RoundedMplus1c-Bold.ttf / TCB_____.ttf / times_4.ttf / timesbd_6.ttf / TitilliumWeb-SemiBold.ttf / AGaramondPro-Bold.otf / BLACKPLOTAN.otf / MyriadPro-SemiboldIt.otf / arialbd.ttf / ARIALN.TTF / ARIALNB.TTF / DAVESHAND-PLAIN.TTF / GosmickSansBold.ttf / GothamRounded-Bold.ttf / Handlee-Regular.ttf / MyriadPro-Semibold.ttf / RoundedMplus1c-Bold.ttf / times.ttf / TitilliumWeb-SemiBold.ttf / Tw Cen MT Bold.TTF Video ID : 1 Format : HEVC Format/Info : High Efficiency Video Coding Format profile : Main 10@L4@Main Codec ID : V_MPEGH/ISO/HEVC Duration : 23 min 41 s Bit rate : 1 316 kb/s Width : 1 920 pixels Height : 1 080 pixels Display aspect ratio : 16:9 Frame rate mode : Constant Frame rate : 23.976 (24000/1001) FPS Color space : YUV Chroma subsampling : 4:2:0 Bit depth : 10 bits Bits/(Pixel*Frame) : 0.026 Stream size : 223 MiB (74%) Writing library : x265 3.4+70-90fa80a85:[DJATOM's Mod][Windows][GCC 10.2.1][64 bit] 10bit Encoding settings : cpuid=1111039 / frame-threads=3 / numa-pools=12 / wpp / no-pmode / no-pme / no-psnr / no-ssim / log-level=2 / input-csp=1 / input-res=1920x1080 / interlace=0 / total-frames=34072 / level-idc=0 / high-tier=1 / uhd-bd=0 / ref=3 / no-allow-non-conformance / no-repeat-headers / annexb / no-aud / no-hrd / info / hash=0 / no-temporal-layers / open-gop / min-keyint=23 / keyint=250 / gop-lookahead=0 / bframes=4 / b-adapt=2 / b-pyramid / bframe-bias=0 / rc-lookahead=20 / lookahead-slices=6 / scenecut=40 / hist-scenecut=0 / radl=0 / no-splice / no-intra-refresh / ctu=64 / min-cu-size=8 / no-rect / no-amp / max-tu-size=32 / tu-inter-depth=1 / tu-intra-depth=1 / limit-tu=0 / rdoq-level=0 / dynamic-rd=0.00 / no-ssim-rd / signhide / no-tskip / nr-intra=0 / nr-inter=0 / no-constrained-intra / strong-intra-smoothing / max-merge=3 / limit-refs=3 / no-limit-modes / me=1 / subme=2 / merange=57 / temporal-mvp / no-frame-dup / no-hme / weightp / no-weightb / no-analyze-src-pics / deblock=0:0 / sao / no-sao-non-deblock / rd=3 / selective-sao=4 / early-skip / rskip / no-fast-intra / no-tskip-fast / no-cu-lossless / b-intra / no-splitrd-skip / rdpenalty=0 / psy-rd=2.00 / psy-rdoq=0.00 / no-rd-refine / no-lossless / cbqpoffs=0 / crqpoffs=0 / rc=crf / crf=20.0 / qcomp=0.60 / qpstep=4 / stats-write=0 / stats-read=0 / ipratio=1.40 / pbratio=1.30 / aq-mode=3 / aq-strength=1.00 / cutree / zone-count=0 / no-strict-cbr / qg-size=32 / no-rc-grain / qpmax=69 / qpmin=0 / no-const-vbv / sar=0 / overscan=0 / videoformat=5 / range=0 / colorprim=2 / transfer=2 / colormatrix=2 / chromaloc=0 / display-window=0 / cll=0,0 / min-luma=0 / max-luma=1023 / log2-max-poc-lsb=8 / vui-timing-info / vui-hrd-info / slices=1 / no-opt-qp-pps / no-opt-ref-list-length-pps / no-multi-pass-opt-rps / scenecut-bias=0.05 / hist-threshold=0.03 / no-opt-cu-delta-qp / no-aq-motion / no-hdr10 / no-hdr10-opt / no-dhdr10-opt / no-idr-recovery-sei / analysis-reuse-level=0 / analysis-save-reuse-level=0 / analysis-load-reuse-level=0 / scale-factor=0 / refine-intra=0 / refine-inter=0 / refine-mv=1 / refine-ctu-distortion=0 / no-limit-sao / ctu-info=0 / no-lowpass-dct / refine-analysis-type=0 / copy-pic=1 / max-ausize-factor=1.0 / no-dynamic-refine / no-single-sei / no-hevc-aq / no-svt / no-field / qp-adaptation-range=1.00 / no-scenecut-aware-qpconformance-window-offsets / right=0 / bottom=0 / decoder-max-rate=0 / no-vbv-live-multi-pass Default : Yes Forced : No Audio #1 ID : 2 Format : AAC LC Format/Info : Advanced Audio Codec Low Complexity Codec ID : A_AAC-2 Duration : 23 min 40 s Bit rate : 128 kb/s Channel(s) : 2 channels Channel layout : L R Sampling rate : 44.1 kHz Frame rate : 43.066 FPS (1024 SPF) Compression mode : Lossy Stream size : 21.7 MiB (7%) Title : AAC FR Language : French Default : Yes Forced : No Audio #2 ID : 3 Format : AAC LC Format/Info : Advanced Audio Codec Low Complexity Codec ID : A_AAC-2 Duration : 23 min 41 s Bit rate : 225 kb/s Channel(s) : 2 channels Channel layout : L R Sampling rate : 48.0 kHz Frame rate : 46.875 FPS (1024 SPF) Compression mode : Lossy Stream size : 38.1 MiB (13%) Title : AAC JP Language : Japanese Default : No Forced : No Text #1 ID : 4 Format : ASS Codec ID : S_TEXT/ASS Codec ID/Info : Advanced Sub Station Alpha Duration : 22 min 46 s Bit rate : 8 589 b/s Count of elements : 7951 Compression mode : Lossless Stream size : 1.40 MiB (0%) Title : Edits Language : French Default : Yes Forced : No Text #2 ID : 5 Format : ASS Codec ID : S_TEXT/ASS Codec ID/Info : Advanced Sub Station Alpha Duration : 23 min 27 s Bit rate : 8 495 b/s Count of elements : 8366 Compression mode : Lossless Stream size : 1.43 MiB (0%) Title : Complets Language : French Default : No Forced : No Menu 00:00:00.000 : Intro 00:00:52.030 : OP 00:02:22.000 : Part A 00:14:18.000 : Part B 00:21:04.490 : ED 00:22:36.970 : Outro 00:23:25.010 : Preview PS : s’il vous plaît, pourriez-vous continuer à seeder pour que ce torrent puisse vivre. Merci. PS : please, could you keep seeding in order for this torrent to live. Thank you.

File list

  • Tonikaku.Kawaii.2020.S01.CUSTOM.MULTi.1080p.BluRay.x265-SceneGuardians
    • Tonikaku.Kawaii.S01E01.CUSTOM.MULTi.1080p.BluRay.x265-SceneGuardians.mkv (300.5 MiB)
    • Tonikaku.Kawaii.S01E02.CUSTOM.MULTi.1080p.BluRay.x265-SceneGuardians.mkv (209.5 MiB)
    • Tonikaku.Kawaii.S01E03.CUSTOM.MULTi.1080p.BluRay.x265-SceneGuardians.mkv (259.4 MiB)
    • Tonikaku.Kawaii.S01E04.CUSTOM.MULTi.1080p.BluRay.x265-SceneGuardians.mkv (252.4 MiB)
    • Tonikaku.Kawaii.S01E05.CUSTOM.MULTi.1080p.BluRay.x265-SceneGuardians.mkv (238.5 MiB)
    • Tonikaku.Kawaii.S01E06.CUSTOM.MULTi.1080p.BluRay.x265-SceneGuardians.mkv (216.2 MiB)
    • Tonikaku.Kawaii.S01E07.CUSTOM.MULTi.1080p.BluRay.x265-SceneGuardians.mkv (268.3 MiB)
    • Tonikaku.Kawaii.S01E08.CUSTOM.MULTi.1080p.BluRay.x265-SceneGuardians.mkv (222.1 MiB)
    • Tonikaku.Kawaii.S01E09.CUSTOM.MULTi.1080p.BluRay.x265-SceneGuardians.mkv (256.0 MiB)
    • Tonikaku.Kawaii.S01E10.CUSTOM.MULTi.1080p.BluRay.x265-SceneGuardians.mkv (210.6 MiB)
    • Tonikaku.Kawaii.S01E11.CUSTOM.MULTi.1080p.BluRay.x265-SceneGuardians.mkv (320.3 MiB)
    • Tonikaku.Kawaii.S01E12.CUSTOM.MULTi.1080p.BluRay.x265-SceneGuardians.mkv (233.7 MiB)