Drifters.2016.S01.MULTi.1080p.BluRay.x265-SceneGuardians (VF/VOSTFR)

Category:
Date:
2021-08-16 16:15 UTC
Submitter:
Seeders:
1
Information:
Leechers:
1
File size:
9.2 GiB
Completed:
85
Info hash:
36075650224c5685bcea357e7b4cfc399660b3c9
![alt text](https://cdn.myanimelist.net/images/anime/10/80271l.webp?_gl=1*1ykcvgt*_ga*MTI3NDUxODI5NS4xNjA3OTQxNjk2*_ga_26FEP9527K*MTYyOTEzMDE4Ny4xNDEuMC4xNjI5MTMwMTg3LjYw) Source Video : [OTF] FRENCH BDMV (Merci) Source Audio et Subs FR : [KAZETV] (Merci) General Unique ID : 116443591636283736604048779811467015070 (0x579A3851AFA7CA984718F512FDA3B39E) Complete name : Drifters.E01.MULTi.1080p.BluRay.x265-SceneGuardians.mkv Format : Matroska Format version : Version 4 File size : 1.15 GiB Duration : 23 min 39 s Overall bit rate : 6 985 kb/s Encoded date : UTC 2021-08-16 15:51:24 Writing application : mkvmerge v60.0.0 ('Are We Copies?') 64-bit Writing library : libebml v1.4.2 + libmatroska v1.6.4 Video ID : 1 Format : HEVC Format/Info : High Efficiency Video Coding Format profile : Main 10@L4@Main Codec ID : V_MPEGH/ISO/HEVC Duration : 23 min 39 s Bit rate : 6 726 kb/s Width : 1 920 pixels Height : 1 080 pixels Display aspect ratio : 16:9 Frame rate mode : Constant Frame rate : 23.976 (24000/1001) FPS Color space : YUV Chroma subsampling : 4:2:0 Bit depth : 10 bits Bits/(Pixel*Frame) : 0.135 Stream size : 1.11 GiB (96%) Writing library : x265 3.5+1-f0c1022b6:[Linux][GCC 9.3.0][64 bit] 10bit Encoding settings : cpuid=1111039 / frame-threads=4 / wpp / no-pmode / no-pme / psnr / no-ssim / log-level=2 / input-csp=1 / input-res=1920x1080 / interlace=0 / total-frames=0 / level-idc=0 / high-tier=1 / uhd-bd=0 / ref=4 / no-allow-non-conformance / no-repeat-headers / annexb / no-aud / no-hrd / info / hash=0 / no-temporal-layers / open-gop / min-keyint=24 / keyint=240 / gop-lookahead=0 / bframes=4 / b-adapt=2 / b-pyramid / bframe-bias=0 / rc-lookahead=25 / lookahead-slices=4 / scenecut=40 / hist-scenecut=0 / radl=0 / no-splice / no-intra-refresh / ctu=64 / min-cu-size=8 / rect / no-amp / max-tu-size=32 / tu-inter-depth=1 / tu-intra-depth=1 / limit-tu=0 / rdoq-level=2 / dynamic-rd=0.00 / no-ssim-rd / signhide / no-tskip / nr-intra=0 / nr-inter=0 / no-constrained-intra / strong-intra-smoothing / max-merge=3 / limit-refs=3 / limit-modes / me=3 / subme=3 / merange=57 / temporal-mvp / no-frame-dup / no-hme / weightp / no-weightb / no-analyze-src-pics / deblock=0:0 / sao / no-sao-non-deblock / rd=4 / selective-sao=4 / no-early-skip / rskip / no-fast-intra / no-tskip-fast / no-cu-lossless / no-b-intra / no-splitrd-skip / rdpenalty=0 / psy-rd=0.00 / psy-rdoq=0.00 / no-rd-refine / no-lossless / cbqpoffs=0 / crqpoffs=0 / rc=crf / crf=18.0 / qcomp=0.60 / qpstep=4 / stats-write=0 / stats-read=0 / ipratio=1.40 / pbratio=1.30 / aq-mode=2 / aq-strength=0.00 / cutree / zone-count=0 / no-strict-cbr / qg-size=32 / no-rc-grain / qpmax=69 / qpmin=0 / no-const-vbv / sar=1 / overscan=0 / videoformat=5 / range=0 / colorprim=1 / transfer=1 / colormatrix=1 / chromaloc=0 / display-window=0 / cll=0,0 / min-luma=0 / max-luma=1023 / log2-max-poc-lsb=8 / vui-timing-info / vui-hrd-info / slices=1 / no-opt-qp-pps / no-opt-ref-list-length-pps / no-multi-pass-opt-rps / scenecut-bias=0.05 / hist-threshold=0.03 / no-opt-cu-delta-qp / no-aq-motion / no-hdr10 / no-hdr10-opt / no-dhdr10-opt / no-idr-recovery-sei / analysis-reuse-level=0 / analysis-save-reuse-level=0 / analysis-load-reuse-level=0 / scale-factor=0 / refine-intra=0 / refine-inter=0 / refine-mv=1 / refine-ctu-distortion=0 / no-limit-sao / ctu-info=0 / no-lowpass-dct / refine-analysis-type=0 / copy-pic=1 / max-ausize-factor=1.0 / no-dynamic-refine / no-single-sei / no-hevc-aq / no-svt / no-field / qp-adaptation-range=1.00 / scenecut-aware-qp=0conformance-window-offsets / right=0 / bottom=0 / decoder-max-rate=0 / no-vbv-live-multi-pass Default : Yes Forced : No Color range : Limited Color primaries : BT.709 Transfer characteristics : BT.709 Matrix coefficients : BT.709 Audio #1 ID : 2 Format : AAC LC Format/Info : Advanced Audio Codec Low Complexity Codec ID : A_AAC-2 Duration : 23 min 39 s Bit rate : 128 kb/s Channel(s) : 2 channels Channel layout : L R Sampling rate : 48.0 kHz Frame rate : 46.875 FPS (1024 SPF) Compression mode : Lossy Delay relative to video : 9 ms Stream size : 21.6 MiB (2%) Title : JAP-AAC Language : Japanese Default : Yes Forced : No Audio #2 ID : 3 Format : AAC LC Format/Info : Advanced Audio Codec Low Complexity Codec ID : A_AAC-2 Duration : 23 min 39 s Bit rate : 128 kb/s Channel(s) : 2 channels Channel layout : L R Sampling rate : 48.0 kHz Frame rate : 46.875 FPS (1024 SPF) Compression mode : Lossy Delay relative to video : 9 ms Stream size : 21.7 MiB (2%) Title : FR-AAC Language : French Default : No Forced : No Text #1 ID : 4 Format : UTF-8 Codec ID : S_TEXT/UTF8 Codec ID/Info : UTF-8 Plain Text Duration : 23 min 25 s Bit rate : 50 b/s Count of elements : 311 Stream size : 8.59 KiB (0%) Title : FR Language : French Default : Yes Forced : No Text #2 ID : 5 Format : UTF-8 Codec ID : S_TEXT/UTF8 Codec ID/Info : UTF-8 Plain Text Duration : 23 min 25 s Bit rate : 10 b/s Count of elements : 67 Stream size : 1.80 KiB (0%) Title : FR Forced Language : French Default : No Forced : No Menu 00:00:00.000 : Chapter 01 00:01:24.209 : Chapter 02 00:11:11.880 : Chapter 03 00:21:54.939 : Chapter 04 00:23:24.945 : Chapter 05 PS : s’il vous plaît, pourriez-vous continuer à seeder pour que ce torrent puisse vivre. Merci. PS: please, could you keep seeding in order for this torrent to live. Thank you.

File list

  • Drifters.2016.S01.MULTi.1080p.BluRay.x265-SceneGuardians
    • Drifters.E01.MULTi.1080p.BluRay.x265-SceneGuardians.mkv (1.2 GiB)
    • Drifters.E02.MULTi.1080p.BluRay.x265-SceneGuardians.mkv (800.5 MiB)
    • Drifters.E03.MULTi.1080p.BluRay.x265-SceneGuardians.mkv (720.2 MiB)
    • Drifters.E04.MULTi.1080p.BluRay.x265-SceneGuardians.mkv (707.3 MiB)
    • Drifters.E05.MULTi.1080p.BluRay.x265-SceneGuardians.mkv (656.7 MiB)
    • Drifters.E06.MULTi.1080p.BluRay.x265-SceneGuardians.mkv (870.1 MiB)
    • Drifters.E07.MULTi.1080p.BluRay.x265-SceneGuardians.mkv (807.1 MiB)
    • Drifters.E08.MULTi.1080p.BluRay.x265-SceneGuardians.mkv (784.1 MiB)
    • Drifters.E09.MULTi.1080p.BluRay.x265-SceneGuardians.mkv (656.5 MiB)
    • Drifters.E10.MULTi.1080p.BluRay.x265-SceneGuardians.mkv (871.9 MiB)
    • Drifters.E11.MULTi.1080p.BluRay.x265-SceneGuardians.mkv (799.2 MiB)
    • Drifters.E12.MULTi.1080p.BluRay.x265-SceneGuardians.mkv (516.0 MiB)
Magnifique cet anime ! Je ne comprends pas qu'il n'y a pas eu d'autres saisons :'(