Evangelion.Les.Films.CUSTOM.MULTi.1080p.BluRay.DDP5.1.x265-SceneGuardians (VF/VOSTFR)

Category:
Date:
2021-08-13 14:58 UTC
Submitter:
Seeders:
0
Information:
Leechers:
0
File size:
6.0 GiB
Completed:
37
Info hash:
346c69edf2b1e71af55ea5d6030ba6b52b4564ba
![alt text](https://cdn.myanimelist.net/images/anime/7/74975l.webp?_gl=1*vcubu3*_ga*MTI3NDUxODI5NS4xNjA3OTQxNjk2*_ga_26FEP9527K*MTYyODg2NjI1MS4xMzYuMS4xNjI4ODY2Mzg4LjUx) Source Audio et Video VO : [bonkai77] https://nyaa.si/?f=0&c=0_0&q=evangelion+bonkai+not (Merci) Source Audio et Subs FR : [FRATERNiTY] (Merci) Audio FR et JAP via AMZN Pour les nouveaux doublages. 4em Film : https://nyaa.si/view/1420302 General Unique ID : 263073552061230763198851732796996265173 (0xC5EA1F86B31DADD276273E8F44BB24D5) Complete name : /data/public/Evangelion.Les.Films.CUSTOM.MULTi.1080p.BluRay.DDP5.1.x265-SceneGuardians/Evangelion.1.11.You.Are.Not.Alone.2007.CUSTOM.MULTi.1080p.BluRay.DDP5.1.x265-SceneGuardians.mkv Format : Matroska Format version : Version 4 File size : 1.87 GiB Duration : 1 h 42 min Overall bit rate : 2 629 kb/s Encoded date : UTC 2021-08-13 14:28:16 Writing application : mkvmerge v60.0.0 ('Are We Copies?') 64-bit Writing library : libebml v1.4.2 + libmatroska v1.6.4 Video ID : 1 Format : HEVC Format/Info : High Efficiency Video Coding Format profile : Main 10@L4@Main Codec ID : V_MPEGH/ISO/HEVC Duration : 1 h 41 min Bit rate : 1 359 kb/s Width : 1 920 pixels Height : 1 080 pixels Display aspect ratio : 16:9 Frame rate mode : Constant Frame rate : 23.976 (24000/1001) FPS Color space : YUV Chroma subsampling : 4:2:0 Bit depth : 10 bits Bits/(Pixel*Frame) : 0.027 Stream size : 983 MiB (51%) Title : [bonkai77] Writing library : x265 2.5+55-dd9772385d15:[Windows][GCC 6.2.1][64 bit] 10bit Encoding settings : cpuid=1050111 / frame-threads=3 / numa-pools=8 / wpp / no-pmode / no-pme / no-psnr / no-ssim / log-level=2 / input-csp=1 / input-res=1920x1080 / interlace=0 / total-frames=145478 / level-idc=0 / high-tier=1 / uhd-bd=0 / ref=4 / no-allow-non-conformance / no-repeat-headers / annexb / no-aud / no-hrd / info / hash=0 / no-temporal-layers / open-gop / min-keyint=23 / keyint=250 / bframes=8 / b-adapt=2 / b-pyramid / bframe-bias=0 / rc-lookahead=30 / lookahead-slices=4 / scenecut=40 / no-intra-refresh / ctu=32 / min-cu-size=8 / rect / amp / max-tu-size=16 / tu-inter-depth=2 / tu-intra-depth=2 / limit-tu=4 / rdoq-level=2 / dynamic-rd=0.00 / no-ssim-rd / signhide / no-tskip / nr-intra=0 / nr-inter=0 / no-constrained-intra / no-strong-intra-smoothing / max-merge=3 / limit-refs=2 / limit-modes / me=3 / subme=3 / merange=57 / temporal-mvp / weightp / weightb / no-analyze-src-pics / deblock=0:0 / no-sao / no-sao-non-deblock / rd=6 / no-early-skip / rskip / no-fast-intra / no-tskip-fast / no-cu-lossless / b-intra / no-splitrd-skip / rdpenalty=0 / psy-rd=2.00 / psy-rdoq=1.00 / no-rd-refine / analysis-reuse-mode=0 / no-lossless / cbqpoffs=0 / crqpoffs=0 / rc=abr / bitrate=1358 / qcomp=0.60 / qpstep=4 / stats-write=0 / stats-read=2 / cplxblur=20.0 / qblur=0.5 / ipratio=1.40 / pbratio=1.30 / aq-mode=2 / aq-strength=1.00 / cutree / zone-count=0 / no-strict-cbr / qg-size=32 / no-rc-grain / qpmax=69 / qpmin=0 / no-const-vbv / sar=0 / overscan=0 / videoformat=5 / range=0 / colorprim=2 / transfer=2 / colormatrix=2 / chromaloc=0 / display-window=0 / max-cll=0,0 / min-luma=0 / max-luma=1023 / log2-max-poc-lsb=8 / vui-timing-info / vui-hrd-info / slices=1 / opt-qp-pps / opt-ref-list-length-pps / multi-pass-opt-rps / scenecut-bias=0.05 / no-opt-cu-delta-qp / aq-motion / no-hdr / no-hdr-opt / no-dhdr10-opt / analysis-reuse-level=10 / scale-factor=0 / refine-intra=0 / refine-inter=0 / refine-mv=0 / no-limit-sao / ctu-info=0 / no-lowpass-dct / refine-mv-type=0 / copy-pic=1 Default : Yes Forced : No Audio #1 ID : 2 Format : E-AC-3 Format/Info : Enhanced AC-3 Commercial name : Dolby Digital Plus Codec ID : A_EAC3 Duration : 1 h 42 min Bit rate mode : Constant Bit rate : 640 kb/s Channel(s) : 6 channels Channel layout : L R C LFE Ls Rs Sampling rate : 48.0 kHz Frame rate : 31.250 FPS (1536 SPF) Compression mode : Lossy Delay relative to video : 1 s 0 ms Stream size : 467 MiB (24%) Language : French Service kind : Complete Main Default : Yes Forced : No Audio #2 ID : 3 Format : E-AC-3 Format/Info : Enhanced AC-3 Commercial name : Dolby Digital Plus Codec ID : A_EAC3 Duration : 1 h 42 min Bit rate mode : Constant Bit rate : 640 kb/s Channel(s) : 6 channels Channel layout : L R C LFE Ls Rs Sampling rate : 48.0 kHz Frame rate : 31.250 FPS (1536 SPF) Compression mode : Lossy Delay relative to video : 1 s 0 ms Stream size : 467 MiB (24%) Language : Japanese Service kind : Complete Main Default : No Forced : No Text #1 ID : 4 Format : UTF-8 Codec ID : S_TEXT/UTF8 Codec ID/Info : UTF-8 Plain Text Duration : 1 h 40 min Bit rate : 1 b/s Count of elements : 41 Stream size : 846 Bytes (0%) Title : FORCED Language : French Default : Yes Forced : Yes Text #2 ID : 5 Format : UTF-8 Codec ID : S_TEXT/UTF8 Codec ID/Info : UTF-8 Plain Text Duration : 1 h 40 min Bit rate : 57 b/s Count of elements : 1362 Stream size : 42.2 KiB (0%) Title : FULL Language : French Default : No Forced : No Menu 00:00:00.000 : Chapter 01 00:02:05.792 : Chapter 02 00:10:47.396 : Chapter 03 00:13:29.767 : Chapter 04 00:14:27.575 : Chapter 05 00:17:11.697 : Chapter 06 00:19:13.861 : Chapter 07 00:27:34.069 : Chapter 08 00:29:43.031 : Chapter 09 00:30:56.938 : Chapter 10 00:35:54.318 : Chapter 11 00:38:00.778 : Chapter 12 00:41:24.732 : Chapter 13 00:42:41.433 : Chapter 14 00:44:35.464 : Chapter 15 00:48:57.267 : Chapter 16 00:52:14.965 : Chapter 17 00:53:11.521 : Chapter 18 00:55:19.065 : Chapter 19 00:56:38.770 : Chapter 20 01:01:43.324 : Chapter 21 01:03:15.291 : Chapter 22 01:07:15.948 : Chapter 23 01:08:54.046 : Chapter 24 01:10:48.202 : Chapter 25 01:14:42.769 : Chapter 26 01:18:55.772 : Chapter 27 01:21:17.664 : Chapter 28 01:23:23.748 : Chapter 29 01:28:11.160 : Chapter 30 01:33:23.806 : Chapter 31 01:35:23.718 : Chapter 32 01:40:23.892 : Chapter 33 01:40:57.634 : Chapter 34 PS : s’il vous plaît, pourriez-vous continuer à seeder pour que ce torrent puisse vivre. Merci. PS: please, could you keep seeding in order for this torrent to live. Thank you.

File list

  • Evangelion.Les.Films.CUSTOM.MULTi.1080p.BluRay.DDP5.1.x265-SceneGuardians
    • Evangelion.1.11.You.Are.Not.Alone.2007.CUSTOM.MULTi.1080p.BluRay.DDP5.1.x265-SceneGuardians.mkv (1.9 GiB)
    • Evangelion.2.22.You.Can.Not.Advance.2009.CUSTOM.MULTi.1080p.BluRay.DDP5.1.x265-SceneGuardians.mkv (2.2 GiB)
    • Evangelion.3.33.You.Can.Not.Redo.2012.CUSTOM.MULTi.1080p.BluRay.DDP5.1.x265-SceneGuardians.mkv (1.9 GiB)