[ZG] Doraemon Movie 36 - Nobita and the Birth of Japan (BDRip 2016 AVC x264 10-bit 1080p AC3 2CH)

Category:
Date:
2021-08-12 17:28 UTC
Submitter:
Seeders:
5
Information:
No information.
Leechers:
0
File size:
3.6 GiB
Completed:
315
Info hash:
7c3bb420f370569b0e06813a0aedaf7e52b748b3
Video Format : AVC Format profile : High 10@L4.1 Duration : 1 h 43 min Bit rate : 4 583 kb/s Width : 1 920 pixels Height : 1 080 pixels Display aspect ratio : 16:9 Frame rate mode : Constant Frame rate : 23.976 (24000/1001) FPS Bit depth : 10 bits Stream size : 3.33 GiB (93%) Writing library : x264 core 157 r2935 545de2f CRF : 16 Language : Japanese Audio Format : AC-3 Commercial name : Dolby Digital Duration : 1 h 43 min Bit rate mode : Constant Bit rate : 320 kb/s Channel(s) : 2 channels Sampling rate : 48.0 kHz Frame rate : 31.250 FPS (1536 SPF) Compression mode : Lossy Delay relative to video : -5 ms Stream size : 238 MiB (7%) Language : Japanese Subtitle Format : Advanced Sub Station Alpha Language : English Default : Yes Forced : No MD5: 1d9d075c52d20889b1d199151dc76681 Seeding may take time, so please be patient.

File list

  • Doraemon Movie 36 - Nobita and the Birth of Japan (2016) [A7ED3DBF].mkv (3.6 GiB)