[NRN] Made in Abyss S01 BDRip 1080p 10Bit X265 Opus + Movies + Extras

Category:
Date:
2021-08-12 16:18 UTC
Submitter:
Seeders:
8
Information:
No information.
Leechers:
3
File size:
10.5 GiB
Completed:
752
Info hash:
194419256a74e6c1c9c3c72d449114fa4d030276
## Seed Till You Bleed Source: https://nyaa.si/view/1383977 General Format : Matroska Format version : Version 4 File size : 253 MiB Duration : 24 min 43 s Overall bit rate : 1 432 kb/s Encoded date : UTC 2021-08-10 03:32:25 Writing application : mkvmerge v60.0.0 ('Are We Copies?') 64-bit Writing library : libebml v1.4.2 + libmatroska v1.6.4 / Lavf58.76.100 Video ID : 1 ID in the original source medium : 4113 (0x1011) Format : HEVC Format/Info : High Efficiency Video Coding Format profile : Main 10@L4@Main Codec ID : V_MPEGH/ISO/HEVC Duration : 24 min 43 s Bit rate : 479 kb/s Width : 1 920 pixels Height : 1 080 pixels Display aspect ratio : 16:9 Frame rate mode : Variable Frame rate : 23.976 FPS Color space : YUV Chroma subsampling : 4:2:0 Bit depth : 10 bits Bits/(Pixel*Frame) : 0.010 Stream size : 84.6 MiB (33%) Title : [NRN] Language : English Default : Yes Forced : No Color range : Limited Original source medium : Blu-ray Audio #1 ID : 2 ID in the original source medium : 4352 (0x1100) Format : Opus Codec ID : A_OPUS Duration : 23 min 43 s Bit rate : 488 kb/s Channel(s) : 2 channels Channel layout : L R Sampling rate : 48.0 kHz Frame rate : 50.000 FPS (960 SPF) Bit depth : 32 bits Compression mode : Lossy Stream size : 82.8 MiB (33%) Title : Stereo Writing library : Lavc58.134.100 libopus Language : English Default : Yes Forced : No Original source medium : Blu-ray Audio #2 ID : 3 ID in the original source medium : 4353 (0x1101) Format : Opus Codec ID : A_OPUS Duration : 23 min 43 s Bit rate : 484 kb/s Channel(s) : 2 channels Channel layout : L R Sampling rate : 48.0 kHz Frame rate : 50.000 FPS (960 SPF) Bit depth : 32 bits Compression mode : Lossy Stream size : 82.2 MiB (32%) Title : Stereo Writing library : Lavc58.134.100 libopus Language : Japanese Default : No Forced : No Original source medium : Blu-ray Text #1 ID : 4 Format : UTF-8 Codec ID : S_TEXT/UTF8 Codec ID/Info : UTF-8 Plain Text Duration : 23 min 36 s Bit rate : 217 b/s Count of elements : 426 Stream size : 37.5 KiB (0%) Title : বাংলা by নূরুল্লাহ মাশহুর Language : Bengali Default : Yes Forced : No Text #2 ID : 5 ID in the original source medium : 4608 (0x1200) Format : PGS Muxing mode : zlib Codec ID : S_HDMV/PGS Codec ID/Info : Picture based subtitle format used on BDs/HD-DVDs Duration : 21 min 59 s Bit rate : 2 141 b/s Count of elements : 28 Stream size : 345 KiB (0%) Title : Songs Language : English Default : No Forced : No Original source medium : Blu-ray Text #3 ID : 6 ID in the original source medium : 4609 (0x1201) Format : PGS Muxing mode : zlib Codec ID : S_HDMV/PGS Codec ID/Info : Picture based subtitle format used on BDs/HD-DVDs Duration : 23 min 38 s Bit rate : 70.6 kb/s Count of elements : 700 Stream size : 11.9 MiB (5%) Language : English Default : No Forced : No Original source medium : Blu-ray Menu 00:00:00.000 : :Chapter 01 00:01:26.503 : :Chapter 02 00:02:56.551 : :Chapter 03 00:13:28.557 : :Chapter 04 00:18:21.809 : :Chapter 05 00:20:31.688 : :Chapter 06 00:23:30.534 : :Chapter 07 00:23:42.421 : :Chapter 08 ## screenshots: Source vs encoded Source [ ![](https://i.ibb.co/c2wQ2Td/03-Departure-og-mkv-SS20m.png) ](https://ibb.co/XFDtFJT) [ ![](https://i.ibb.co/ZhGX9sw/03-Departure-og-mkv-SS2m.png) ](https://ibb.co/K9bhnZQ) [ ![](https://i.ibb.co/MC9BMq8/03-Departure-og-mkv-SS4m.png) ](https://ibb.co/x73FJVm) [ ![](https://i.ibb.co/GWjGfYV/03-Departure-og-mkv-SS08m.png) ](https://ibb.co/0C31p4f) [ ![](https://i.ibb.co/Hg7T44T/03-Departure-og-mkv-SS16m.png) ](https://ibb.co/s3j9RR9) Encoded [ ![](https://i.ibb.co/FsGXTkf/03-Departure-mkv-SS20m.png) ](https://ibb.co/VHXx40h) [ ![](https://i.ibb.co/D7SBWRX/03-Departure-mkv-SS2m.png) ](https://ibb.co/LC2TRZw) [ ![](https://i.ibb.co/kc73n7J/03-Departure-mkv-SS4m.png) ](https://ibb.co/f0g8Rg9) [ ![](https://i.ibb.co/hgPVY1X/03-Departure-mkv-SS08m.png) ](https://ibb.co/QJ2MDj8) [ ![](https://i.ibb.co/jwX8myw/03-Departure-mkv-SS16m.png) ](https://ibb.co/7pmSPnp)

File list

  • [NRN]Made.in.Abyss.Season.1.BDRip.1080p.10Bit.X265.Opus.+.Movies.+.Extras
    • Extras
      • Fast.Episode.Advance.Screening.Event.mkv (878.4 MiB)
      • Kevin.Penkin.Interview.mkv (301.0 MiB)
      • Made in Abyss Opening.mkv (215.4 MiB)
      • Made.in.Abyss.Ending.mkv (214.9 MiB)
      • Making.of.Made.in.Abyss.00.mkv (216.2 MiB)
      • Making.of.Made.in.Abyss.01.mkv (650.1 MiB)
      • Making.of.Made.in.Abyss.02.mkv (632.9 MiB)
      • Making.of.Made.in.Abyss.Movie.1.mkv (323.2 MiB)
      • Making.of.Made.in.Abyss.OST.mkv (79.5 MiB)
    • Movies
      • Made.in.Abyss.Movie.1.Journey's.Dawn.mkv (1.2 GiB)
      • Made.in.Abyss.Movie.2.Wandering.Twilight.mkv (1.0 GiB)
      • Made.in.Abyss.Movie.3.Dawn.of.the.Deep.Soul.mkv (1.1 GiB)
    • Season.1
      • 01.The.City.of.the.Great.Pit.mkv (256.6 MiB)
      • 02.Resurrection.Festival.mkv (280.6 MiB)
      • 03.Departure.mkv (253.2 MiB)
      • 04.The.Edge.of.the.Abyss.mkv (309.5 MiB)
      • 05.Incinerator.mkv (293.0 MiB)
      • 06.Seeker.Camp.mkv (257.5 MiB)
      • 07.The.Unmovable.Sovereign.mkv (266.7 MiB)
      • 08.Survival.Training.mkv (267.4 MiB)
      • 09.The.Great.Fault.mkv (297.1 MiB)
      • 10.Poison.and.the.Curse.mkv (270.7 MiB)
      • 11.Nanachi.mkv (272.3 MiB)
      • 12.The.True.Nature.of.the.Curse.mkv (293.3 MiB)
      • 13.The.Challengers.mkv (508.8 MiB)
    • Encoding log.txt (13.8 KiB)
    • Media Info Encoded Serise.txt (9.1 KiB)
    • Media Info Movie 2 Source.txt (12.5 KiB)
    • Media Info Source Serise.txt (8.4 KiB)
    • Movie 3 Media Info Encoded.txt (8.7 KiB)
    • Movie 3 Media Info Source.txt (9.3 KiB)