Beastars.2019.S01.CUSTOM.MULTi.1080p.BluRay.x265-SceneGuardians (VF/VOSTFR)

Category:
Date:
2021-08-06 16:09 UTC
Submitter:
Seeders:
6
Information:
Leechers:
0
File size:
4.4 GiB
Completed:
80
Info hash:
60f096578c3f0cec7a62e1b9f92481363ffabcba
![alt text](https://cdn.myanimelist.net/images/anime/1234/102008l.webp?_gl=1*db8l71*_ga*MTI3NDUxODI5NS4xNjA3OTQxNjk2*_ga_26FEP9527K*MTYyODI2NTg0OC4xMjkuMS4xNjI4MjY1ODU2LjUy) Source Audio et Video VO : [Anime Time] https://nyaa.si/view/1337234 (Merci) Source Audio et Subs FR : [RiPiT] (Merci) General Unique ID : 222770486977306054682796626116632698643 (0xA798090037104BFF774D5CB9BCD8DF13) Complete name : Beastars.S01E01.CUSTOM.MULTi.1080p.BluRay.x265-SceneGuardians.mkv Format : Matroska Format version : Version 4 File size : 322 MiB Duration : 23 min 17 s Overall bit rate : 1 930 kb/s Encoded date : UTC 2021-08-06 16:03:37 Writing application : mkvmerge v59.0.0 ('Shining Star') 64-bit Writing library : libebml v1.4.2 + libmatroska v1.6.4 Video ID : 1 Format : HEVC Format/Info : High Efficiency Video Coding Format profile : Main 10@L4@Main Codec ID : V_MPEGH/ISO/HEVC Duration : 22 min 51 s Bit rate : 1 673 kb/s Width : 1 920 pixels Height : 1 080 pixels Display aspect ratio : 16:9 Frame rate mode : Constant Frame rate : 23.976 (24000/1001) FPS Color space : YUV Chroma subsampling : 4:2:0 Bit depth : 10 bits Bits/(Pixel*Frame) : 0.034 Stream size : 273 MiB (85%) Writing library : x265 3.4+6-g73f96ff39:[Windows][GCC 11.0.0][64 bit] 10bit Encoding settings : cpuid=1111039 / frame-threads=3 / numa-pools=12 / wpp / no-pmode / no-pme / no-psnr / no-ssim / log-level=2 / input-csp=1 / input-res=1920x1080 / interlace=0 / total-frames=32872 / level-idc=0 / high-tier=1 / uhd-bd=0 / ref=3 / no-allow-non-conformance / no-repeat-headers / annexb / no-aud / no-hrd / info / hash=0 / no-temporal-layers / open-gop / min-keyint=23 / keyint=250 / gop-lookahead=0 / bframes=4 / b-adapt=2 / b-pyramid / bframe-bias=0 / rc-lookahead=20 / lookahead-slices=6 / scenecut=40 / hist-scenecut=0 / radl=0 / no-splice / no-intra-refresh / ctu=64 / min-cu-size=8 / no-rect / no-amp / max-tu-size=32 / tu-inter-depth=1 / tu-intra-depth=1 / limit-tu=0 / rdoq-level=0 / dynamic-rd=0.00 / no-ssim-rd / signhide / no-tskip / nr-intra=0 / nr-inter=0 / no-constrained-intra / strong-intra-smoothing / max-merge=3 / limit-refs=1 / no-limit-modes / me=1 / subme=2 / merange=57 / temporal-mvp / no-frame-dup / no-hme / weightp / no-weightb / no-analyze-src-pics / deblock=0:0 / sao / no-sao-non-deblock / rd=3 / selective-sao=4 / early-skip / no-rskip / no-fast-intra / no-tskip-fast / no-cu-lossless / b-intra / no-splitrd-skip / rdpenalty=0 / psy-rd=2.00 / psy-rdoq=0.00 / no-rd-refine / no-lossless / cbqpoffs=0 / crqpoffs=0 / rc=crf / crf=20.0 / qcomp=0.60 / qpstep=4 / stats-write=0 / stats-read=0 / ipratio=1.40 / pbratio=1.30 / aq-mode=3 / aq-strength=1.00 / cutree / zone-count=0 / no-strict-cbr / qg-size=32 / no-rc-grain / qpmax=69 / qpmin=0 / no-const-vbv / sar=0 / overscan=0 / videoformat=5 / range=0 / colorprim=2 / transfer=2 / colormatrix=2 / chromaloc=0 / display-window=0 / cll=0,0 / min-luma=0 / max-luma=1023 / log2-max-poc-lsb=8 / vui-timing-info / vui-hrd-info / slices=1 / no-opt-qp-pps / no-opt-ref-list-length-pps / no-multi-pass-opt-rps / scenecut-bias=0.05 / hist-threshold=0.01 / no-opt-cu-delta-qp / no-aq-motion / no-hdr10 / no-hdr10-opt / no-dhdr10-opt / no-idr-recovery-sei / analysis-reuse-level=0 / analysis-save-reuse-level=0 / analysis-load-reuse-level=0 / scale-factor=0 / refine-intra=0 / refine-inter=0 / refine-mv=1 / refine-ctu-distortion=0 / no-limit-sao / ctu-info=0 / no-lowpass-dct / refine-analysis-type=0 / copy-pic=1 / max-ausize-factor=1.0 / no-dynamic-refine / no-single-sei / no-hevc-aq / no-svt / no-field / qp-adaptation-range=1.00 / no-scenecut-aware-qpconformance-window-offsets / right=0 / bottom=0 / decoder-max-rate=0 Default : Yes Forced : No Audio #1 ID : 2 Format : AAC LC Format/Info : Advanced Audio Codec Low Complexity Codec ID : A_AAC-2 Duration : 22 min 51 s Bit rate : 161 kb/s Channel(s) : 2 channels Channel layout : L R Sampling rate : 48.0 kHz Frame rate : 46.875 FPS (1024 SPF) Compression mode : Lossy Delay relative to video : 9 ms Stream size : 26.3 MiB (8%) Language : Japanese Default : No Forced : No Audio #2 ID : 3 Format : E-AC-3 Format/Info : Enhanced AC-3 Commercial name : Dolby Digital Plus Codec ID : A_EAC3 Duration : 23 min 17 s Bit rate mode : Constant Bit rate : 128 kb/s Channel(s) : 2 channels Channel layout : L R Sampling rate : 48.0 kHz Frame rate : 31.250 FPS (1536 SPF) Compression mode : Lossy Stream size : 21.3 MiB (7%) Language : French Service kind : Complete Main Default : Yes Forced : No Text #1 ID : 4 Format : UTF-8 Codec ID : S_TEXT/UTF8 Codec ID/Info : UTF-8 Plain Text Duration : 20 min 54 s Bit rate : 2 b/s Count of elements : 10 Stream size : 348 Bytes (0%) Title : French (Forced) Language : French Default : Yes Forced : Yes Text #2 ID : 5 Format : UTF-8 Codec ID : S_TEXT/UTF8 Codec ID/Info : UTF-8 Plain Text Duration : 22 min 34 s Bit rate : 51 b/s Count of elements : 262 Stream size : 8.58 KiB (0%) Title : French (Full) Language : French Default : No Forced : No Menu 00:00:00.033 : Intro / Part A 00:10:46.950 : Part B 00:21:19.920 : ED PS : s’il vous plaît, pourriez-vous continuer à seeder pour que ce torrent puisse vivre. Merci. PS: please, could you keep seeding in order for this torrent to live. Thank you.

File list

  • Beastars.2019.S01.CUSTOM.MULTi.1080p.BluRay.x265-SceneGuardians
    • Beastars.S01E01.CUSTOM.MULTi.1080p.BluRay.x265-SceneGuardians.mkv (321.5 MiB)
    • Beastars.S01E02.CUSTOM.MULTi.1080p.BluRay.x265-SceneGuardians.mkv (372.7 MiB)
    • Beastars.S01E03.CUSTOM.MULTi.1080p.BluRay.x265-SceneGuardians.mkv (352.8 MiB)
    • Beastars.S01E04.CUSTOM.MULTi.1080p.BluRay.x265-SceneGuardians.mkv (431.7 MiB)
    • Beastars.S01E05.CUSTOM.MULTi.1080p.BluRay.x265-SceneGuardians.mkv (427.0 MiB)
    • Beastars.S01E06.CUSTOM.MULTi.1080p.BluRay.x265-SceneGuardians.mkv (376.6 MiB)
    • Beastars.S01E07.CUSTOM.MULTi.1080p.BluRay.x265-SceneGuardians.mkv (391.7 MiB)
    • Beastars.S01E08.CUSTOM.MULTi.1080p.BluRay.x265-SceneGuardians.mkv (354.9 MiB)
    • Beastars.S01E09.CUSTOM.MULTi.1080p.BluRay.x265-SceneGuardians.mkv (431.7 MiB)
    • Beastars.S01E10.CUSTOM.MULTi.1080p.BluRay.x265-SceneGuardians.mkv (312.7 MiB)
    • Beastars.S01E11.CUSTOM.MULTi.1080p.BluRay.x265-SceneGuardians.mkv (338.5 MiB)
    • Beastars.S01E12.CUSTOM.MULTi.1080p.BluRay.x265-SceneGuardians.mkv (364.8 MiB)