Gintama.The.Final.2021.CUSTOM.VOSTFR.1080p.BluRay.x265-SceneGuardians

Category:
Date:
2021-08-06 11:51 UTC
Submitter:
Seeders:
1
Information:
Leechers:
0
File size:
2.2 GiB
Completed:
60
Info hash:
3fae34f072fa9abd37d64d8c8fd9e484f8a69316
![alt text](https://cdn.myanimelist.net/images/anime/1988/113791l.webp?_gl=1*o2juvh*_ga*MTI3NDUxODI5NS4xNjA3OTQxNjk2*_ga_26FEP9527K*MTYyODI1MDIxNy4xMjcuMC4xNjI4MjUwMjE5LjU4) Source Video : [EMBER] https://nyaa.si/view/1417508 (Merci) Source Subs FR : [Pikari-Teshima] https://nyaa.si/view/1411363 (Merci) General Unique ID : 177600087069502542214912416677172778834 (0x859C88573F6629A1106BCFBD7C5E9752) Complete name : Gintama.The.Final.2021.CUSTOM.VOSTFR.1080p.BluRay.x265-SceneGuardians.mkv Format : Matroska Format version : Version 4 File size : 2.16 GiB Duration : 1 h 43 min Overall bit rate : 2 975 kb/s Encoded date : UTC 2021-08-06 11:42:29 Writing application : mkvmerge v59.0.0 ('Shining Star') 64-bit Writing library : libebml v1.4.2 + libmatroska v1.6.4 Attachments : a꾸러기.ttf / Brush Stroke.otf / Brushaff.otf / BrushBaka.ttf / BrushStrokes-Heavy ModByArmonth.ttf / Catalogue.ttf / hooteroll.ttf / Junicode-Bold.ttf / Junicode[1].ttf / KG No Regrets Solid.ttf / KGMissKindergarten.ttf / KOZUKAGOTHICMIKAKUNIN-BOLD.TTF / Lato-BlackItalic.ttf / Lato-Black_1.ttf / LEHN091.TTF / Saiyan-Sans.ttf / verdanab.ttf Video ID : 1 Format : HEVC Format/Info : High Efficiency Video Coding Format profile : Main 10@L4.1@High Codec ID : V_MPEGH/ISO/HEVC Duration : 1 h 43 min Bit rate : 2 566 kb/s Width : 1 920 pixels Height : 1 080 pixels Display aspect ratio : 16:9 Frame rate mode : Constant Frame rate : 23.976 (24000/1001) FPS Color space : YUV Chroma subsampling : 4:2:0 Bit depth : 10 bits Bits/(Pixel*Frame) : 0.052 Stream size : 1.86 GiB (86%) Writing library : x265 2.4+14-bc0e9bd7c08f5ddc:[Windows][GCC 6.3.0][64 bit] 10bit: KG7x [x265.ru] Encoding settings : cpuid=1050111 / frame-threads=3 / numa-pools=8 / wpp / no-pmode / no-pme / no-psnr / no-ssim / log-level=2 / input-csp=1 / input-res=1920x1080 / interlace=0 / total-frames=0 / level-idc=41 / high-tier=1 / uhd-bd=0 / ref=4 / no-allow-non-conformance / no-repeat-headers / annexb / no-aud / no-hrd / info / hash=0 / no-temporal-layers / open-gop / min-keyint=23 / keyint=250 / bframes=8 / b-adapt=2 / b-pyramid / bframe-bias=0 / rc-lookahead=60 / lookahead-slices=4 / scenecut=40 / no-intra-refresh / ctu=64 / min-cu-size=8 / rect / no-amp / max-tu-size=32 / tu-inter-depth=2 / tu-intra-depth=2 / limit-tu=4 / rdoq-level=2 / dynamic-rd=0.00 / no-ssim-rd / signhide / no-tskip / nr-intra=0 / nr-inter=0 / no-constrained-intra / strong-intra-smoothing / max-merge=3 / limit-refs=3 / limit-modes / me=3 / subme=3 / merange=57 / temporal-mvp / weightp / no-weightb / no-analyze-src-pics / deblock=0:-1 / no-sao / no-sao-non-deblock / rd=4 / no-early-skip / rskip / no-fast-intra / no-tskip-fast / no-cu-lossless / no-b-intra / rdpenalty=0 / psy-rd=1.20 / psy-rdoq=1.25 / no-rd-refine / analysis-mode=0 / no-lossless / cbqpoffs=0 / crqpoffs=0 / rc=crf / crf=19.5 / qcomp=0.60 / qpstep=4 / stats-write=0 / stats-read=0 / vbv-maxrate=50000 / vbv-bufsize=50000 / vbv-init=0.9 / crf-max=0.0 / crf-min=0.0 / ipratio=1.40 / pbratio=1.30 / aq-mode=3 / aq-strength=0.70 / cutree / zone-count=0 / no-strict-cbr / qg-size=32 / no-rc-grain / qpmax=69 / qpmin=0 / sar=0 / overscan=0 / videoformat=5 / range=0 / colorprim=1 / transfer=1 / colormatrix=1 / chromaloc=0 / display-window=0 / max-cll=0,0 / min-luma=0 / max-luma=1023 / log2-max-poc-lsb=8 / vui-timing-info / vui-hrd-info / slices=1 / opt-qp-pps / opt-ref-list-length-pps / no-multi-pass-opt-rps / scenecut-bias=0.05 / no-opt-cu-delta-qp / no-aq-motion / no-hdr / no-hdr-opt / no-dhdr10-opt / refine-level=5 / no-limit-sao / ctu-info=0 Default : Yes Forced : No Color range : Limited Color primaries : BT.709 Transfer characteristics : BT.709 Matrix coefficients : BT.709 Audio ID : 2 Format : AC-3 Format/Info : Audio Coding 3 Commercial name : Dolby Digital Codec ID : A_AC3 Duration : 1 h 43 min Bit rate mode : Constant Bit rate : 384 kb/s Channel(s) : 6 channels Channel layout : L R C LFE Ls Rs Sampling rate : 48.0 kHz Frame rate : 31.250 FPS (1536 SPF) Compression mode : Lossy Stream size : 285 MiB (13%) Language : Japanese Service kind : Complete Main Default : Yes Forced : No Text ID : 3 Format : ASS Codec ID : S_TEXT/ASS Codec ID/Info : Advanced Sub Station Alpha Duration : 1 h 43 min Bit rate : 15.5 kb/s Count of elements : 21382 Compression mode : Lossless Stream size : 11.5 MiB (1%) Language : French Default : Yes Forced : No Menu 00:00:00.000 : Chapter 01 00:09:14.762 : Chapter 02 00:20:46.245 : Chapter 03 00:29:14.377 : Chapter 04 00:38:26.429 : Chapter 05 00:46:16.773 : Chapter 06 00:59:55.591 : Chapter 07 01:11:00.255 : Chapter 08 01:36:23.444 : Chapter 09 01:40:04.081 : Chapter 10 PS : s’il vous plaît, pourriez-vous continuer à seeder pour que ce torrent puisse vivre. Merci. PS: please, could you keep seeding in order for this torrent to live. Thank you.

File list

  • Gintama.The.Final.2021.CUSTOM.VOSTFR.1080p.BluRay.x265-SceneGuardians.mkv (2.2 GiB)