Bleach.S08.CUSTOM.MULTi.1080p.BluRay.x265-SceneGuardians (VF/VOSTFR)

Category:
Date:
2021-08-05 08:30 UTC
Submitter:
Seeders:
9
Information:
Leechers:
0
File size:
3.8 GiB
Completed:
155
Info hash:
539f3a08836d5fb2820fa37ef2bcb3bd7fe1a751
![alt text](https://cdn.myanimelist.net/images/anime/1957/107460l.webp) Source Video : [Judas] https://nyaa.si/user/Judas?f=0&c=0_0&q=bleach (Merci) Source Audio FR : [Monkey D.Lulu] (Merci) Source Subs FR : [LIGHT] https://nyaa.si/view/1381402 (Merci) E152-168 PS : Audio et subs FR marche aussi avec les USBDs. General Unique ID : 148405642707358726578264910772191814051 (0x6FA5E31A5626C18145DAD5C14132E1A3) Complete name : Bleach.E152.CUSTOM.MULTi.1080p.BluRay.x265-SceneGuardians.mkv Format : Matroska Format version : Version 4 File size : 232 MiB Duration : 24 min 33 s Overall bit rate : 1 319 kb/s Encoded date : UTC 2021-08-02 13:15:02 Writing application : mkvmerge v59.0.0 ('Shining Star') 64-bit Writing library : libebml v1.4.2 + libmatroska v1.6.4 / Lavf58.29.100 Video ID : 1 Format : HEVC Format/Info : High Efficiency Video Coding Format profile : Main 10@L4@Main Codec ID : V_MPEGH/ISO/HEVC Duration : 24 min 29 s Bit rate : 993 kb/s Width : 1 440 pixels Height : 1 080 pixels Display aspect ratio : 4:3 Frame rate mode : Constant Frame rate : 23.976 (24000/1001) FPS Color space : YUV Chroma subsampling : 4:2:0 Bit depth : 10 bits Bits/(Pixel*Frame) : 0.027 Stream size : 174 MiB (75%) Writing library : x265 3.2+35-acc5d16999e2:[Windows][GCC 9.2.1][64 bit] 10bit Encoding settings : cpuid=1111039 / frame-threads=3 / numa-pools=8 / wpp / no-pmode / no-pme / no-psnr / no-ssim / log-level=2 / input-csp=1 / input-res=1440x1080 / interlace=0 / total-frames=0 / level-idc=0 / high-tier=1 / uhd-bd=0 / ref=6 / no-allow-non-conformance / no-repeat-headers / annexb / no-aud / no-hrd / info / hash=0 / no-temporal-layers / open-gop / min-keyint=23 / keyint=250 / gop-lookahead=0 / bframes=8 / b-adapt=2 / b-pyramid / bframe-bias=0 / rc-lookahead=100 / lookahead-slices=4 / scenecut=40 / hist-scenecut=0 / radl=0 / no-splice / no-intra-refresh / ctu=64 / min-cu-size=8 / rect / no-amp / max-tu-size=32 / tu-inter-depth=4 / tu-intra-depth=4 / limit-tu=0 / rdoq-level=2 / dynamic-rd=0.00 / no-ssim-rd / signhide / no-tskip / nr-intra=0 / nr-inter=0 / no-constrained-intra / strong-intra-smoothing / max-merge=3 / limit-refs=3 / limit-modes / me=3 / subme=3 / merange=57 / temporal-mvp / no-frame-dup / no-hme / weightp / weightb / no-analyze-src-pics / deblock=0:0 / sao / no-sao-non-deblock / rd=4 / selective-sao=4 / no-early-skip / rskip / no-fast-intra / no-tskip-fast / no-cu-lossless / no-b-intra / no-splitrd-skip / rdpenalty=0 / psy-rd=0.60 / psy-rdoq=1.25 / no-rd-refine / no-lossless / cbqpoffs=0 / crqpoffs=0 / rc=crf / crf=23.0 / qcomp=0.70 / qpstep=4 / stats-write=0 / stats-read=0 / ipratio=1.40 / pbratio=1.30 / aq-mode=4 / aq-strength=1.20 / cutree / zone-count=0 / no-strict-cbr / qg-size=32 / no-rc-grain / qpmax=69 / qpmin=0 / no-const-vbv / sar=0 / overscan=0 / videoformat=5 / range=0 / colorprim=2 / transfer=2 / colormatrix=2 / chromaloc=0 / display-window=0 / cll=0,0 / min-luma=0 / max-luma=1023 / log2-max-poc-lsb=8 / vui-timing-info / vui-hrd-info / slices=1 / no-opt-qp-pps / no-opt-ref-list-length-pps / no-multi-pass-opt-rps / scenecut-bias=0.05 / hist-threshold=0.01 / no-opt-cu-delta-qp / no-aq-motion / no-hdr10 / no-hdr10-opt / no-dhdr10-opt / no-idr-recovery-sei / analysis-reuse-level=0 / analysis-save-reuse-level=0 / analysis-load-reuse-level=0 / scale-factor=0 / refine-intra=0 / refine-inter=0 / refine-mv=1 / refine-ctu-distortion=0 / no-limit-sao / ctu-info=0 / no-lowpass-dct / refine-analysis-type=0 / copy-pic=1 / max-ausize-factor=1.0 / no-dynamic-refine / no-single-sei / no-hevc-aq / no-svt / no-field / qp-adaptation-range=1.00 / no-scenecut-aware-qpconformance-window-offsets / right=0 / bottom=0 Language : Japanese Default : No Forced : No Color range : Limited Audio #1 ID : 2 Format : AC-3 Format/Info : Audio Coding 3 Commercial name : Dolby Digital Codec ID : A_AC3 Duration : 24 min 33 s Bit rate mode : Constant Bit rate : 224 kb/s Channel(s) : 2 channels Channel layout : L R Sampling rate : 44.1 kHz Frame rate : 28.711 FPS (1536 SPF) Compression mode : Lossy Stream size : 39.4 MiB (17%) Title : French Language : French Service kind : Complete Main Default : Yes Forced : No Audio #2 ID : 3 Format : Opus Codec ID : A_OPUS Duration : 24 min 30 s Bit rate : 102 kb/s Channel(s) : 2 channels Channel layout : L R Sampling rate : 48.0 kHz Frame rate : 50.000 FPS (960 SPF) Compression mode : Lossy Stream size : 17.9 MiB (8%) Writing library : Lavc58.54.100 libopus Language : Japanese Default : No Forced : No Text ID : 4 Format : UTF-8 Codec ID : S_TEXT/UTF8 Codec ID/Info : UTF-8 Plain Text Duration : 22 min 48 s Bit rate : 43 b/s Count of elements : 262 Stream size : 7.29 KiB (0%) Language : French Default : Yes Forced : No Menu 00:00:00.000 : :Chapter 01 00:01:40.058 : :Chapter 02 00:10:27.209 : :Chapter 03 00:22:00.444 : :Chapter 04 00:23:31.076 : :Chapter 05 PS2 : s’il vous plaît, pourriez-vous continuer à seeder pour que ce torrent puisse vivre. Merci. PS2: please, could you keep seeding in order for this torrent to live. Thank you.

File list

  • Bleach.S08.CUSTOM.MULTi.1080p.BluRay.x265-SceneGuardians
    • Bleach.E152.CUSTOM.MULTi.1080p.BluRay.x265-SceneGuardians.mkv (231.7 MiB)
    • Bleach.E153.CUSTOM.MULTi.1080p.BluRay.x265-SceneGuardians.mkv (190.9 MiB)
    • Bleach.E154.CUSTOM.MULTi.1080p.BluRay.x265-SceneGuardians.mkv (239.5 MiB)
    • Bleach.E155.CUSTOM.MULTi.1080p.BluRay.x265-SceneGuardians.mkv (327.9 MiB)
    • Bleach.E156.CUSTOM.MULTi.1080p.BluRay.x265-SceneGuardians.mkv (221.2 MiB)
    • Bleach.E157.CUSTOM.MULTi.1080p.BluRay.x265-SceneGuardians.mkv (224.5 MiB)
    • Bleach.E158.CUSTOM.MULTi.1080p.BluRay.x265-SceneGuardians.mkv (257.7 MiB)
    • Bleach.E159.CUSTOM.MULTi.1080p.BluRay.x265-SceneGuardians.mkv (207.0 MiB)
    • Bleach.E160.CUSTOM.MULTi.1080p.BluRay.x265-SceneGuardians.mkv (241.4 MiB)
    • Bleach.E161.CUSTOM.MULTi.1080p.BluRay.x265-SceneGuardians.mkv (247.6 MiB)
    • Bleach.E162.CUSTOM.MULTi.1080p.BluRay.x265-SceneGuardians.mkv (262.0 MiB)
    • Bleach.E163.CUSTOM.MULTi.1080p.BluRay.x265-SceneGuardians.mkv (219.3 MiB)
    • Bleach.E164.CUSTOM.MULTi.1080p.BluRay.x265-SceneGuardians.mkv (218.5 MiB)
    • Bleach.E165.CUSTOM.MULTi.1080p.BluRay.x265-SceneGuardians.mkv (260.7 MiB)
    • Bleach.E166.CUSTOM.MULTi.1080p.BluRay.x265-SceneGuardians.mkv (272.2 MiB)
    • Bleach.E167.CUSTOM.MULTi.1080p.BluRay.x265-SceneGuardians.mkv (298.4 MiB)