[ShouryuuReppa] Jujutsu Kaisen 01 ~ 24 1080p [Dual-Audio][HEVC][x265][10bit][AAC]

Category:
Date:
2021-08-04 17:03 UTC
Submitter:
Seeders:
1
Information:
No information.
Leechers:
0
File size:
13.8 GiB
Completed:
293
Info hash:
e12516dd21a5d428765a47741c123d5ad54446bb
Source: Subsplease/Golumpa Video ID : 1 Format : HEVC Format/Info : High Efficiency Video Coding Format profile : Main 10@L4@Main Codec ID : V_MPEGH/ISO/HEVC Duration : 23 min 55 s Bit rate : 7 980 kb/s Width : 1 920 pixels Height : 1 080 pixels Display aspect ratio : 16:9 Frame rate mode : Variable Frame rate : 23.976 FPS Color space : YUV Chroma subsampling : 4:2:0 Bit depth : 10 bits Bits/(Pixel*Frame) : 0.161 Stream size : 1.33 GiB Title : JP audio Writing library : x265 3.4:[Linux][GCC 9.3.0][64 bit] 10bit Encoding settings : cpuid=1111039 / frame-threads=2 / wpp / no-pmode / no-pme / no-psnr / no-ssim / log-level=2 / input-csp=1 / input-res=1920x1080 / interlace=0 / total-frames=0 / level-idc=0 / high-tier=1 / uhd-bd=0 / ref=4 / no-allow-non-conformance / no-repeat-headers / annexb / no-aud / no-hrd / info / hash=0 / no-temporal-layers / open-gop / min-keyint=23 / keyint=250 / gop-lookahead=0 / bframes=8 / b-adapt=2 / b-pyramid / bframe-bias=0 / rc-lookahead=40 / lookahead-slices=0 / scenecut=40 / hist-scenecut=0 / radl=0 / no-splice / no-intra-refresh / ctu=64 / min-cu-size=8 / rect / no-amp / max-tu-size=32 / tu-inter-depth=1 / tu-intra-depth=1 / limit-tu=0 / rdoq-level=1 / dynamic-rd=0.00 / no-ssim-rd / signhide / no-tskip / nr-intra=0 / nr-inter=0 / constrained-intra / strong-intra-smoothing / max-merge=3 / limit-refs=3 / limit-modes / me=3 / subme=3 / merange=57 / temporal-mvp / no-frame-dup / no-hme / weightp / no-weightb / no-analyze-src-pics / deblock=1:1 / sao / no-sao-non-deblock / rd=4 / selective-sao=4 / no-early-skip / rskip / no-fast-intra / no-tskip-fast / no-cu-lossless / no-b-intra / no-splitrd-skip / rdpenalty=0 / psy-rd=1.50 / psy-rdoq=2.00 / no-rd-refine / no-lossless / cbqpoffs=0 / crqpoffs=0 / rc=crf / crf=20.0 / qcomp=0.60 / qpstep=4 / stats-write=0 / stats-read=0 / ipratio=1.40 / pbratio=1.30 / aq-mode=3 / aq-strength=1.00 / cutree / zone-count=0 / no-strict-cbr / qg-size=32 / no-rc-grain / qpmax=69 / qpmin=0 / no-const-vbv / sar=1 / overscan=0 / videoformat=5 / range=0 / colorprim=1 / transfer=1 / colormatrix=1 / chromaloc=0 / display-window=0 / cll=0,0 / min-luma=0 / max-luma=1023 / log2-max-poc-lsb=8 / vui-timing-info / vui-hrd-info / slices=1 / no-opt-qp-pps / no-opt-ref-list-length-pps / no-multi-pass-opt-rps / scenecut-bias=0.05 / hist-threshold=0.01 / no-opt-cu-delta-qp / no-aq-motion / no-hdr10 / no-hdr10-opt / no-dhdr10-opt / no-idr-recovery-sei / analysis-reuse-level=0 / analysis-save-reuse-level=0 / analysis-load-reuse-level=0 / scale-factor=0 / refine-intra=0 / refine-inter=0 / refine-mv=1 / refine-ctu-distortion=0 / limit-sao / ctu-info=0 / no-lowpass-dct / refine-analysis-type=0 / copy-pic=1 / max-ausize-factor=1.0 / no-dynamic-refine / no-single-sei / no-hevc-aq / no-svt / no-field / qp-adaptation-range=1.00 / no-scenecut-aware-qpconformance-window-offsets / right=0 / bottom=0 / decoder-max-rate=0 Default : Yes Forced : No Color range : Limited Color primaries : BT.709 Transfer characteristics : BT.709 Matrix coefficients : BT.709 Audio #1 ID : 2 Format : AAC LC Format/Info : Advanced Audio Codec Low Complexity Codec ID : A_AAC-2 Duration : 23 min 55 s Bit rate : 128 kb/s Channel(s) : 2 channels Channel layout : L R Sampling rate : 44.1 kHz Frame rate : 43.066 FPS (1024 SPF) Compression mode : Lossy Stream size : 21.9 MiB (4%) Writing library : Lavc58.91.100 aac Language : Japanese Default : Yes Forced : No Audio #2 ID : 3 Format : AAC LC Format/Info : Advanced Audio Codec Low Complexity Codec ID : A_AAC-2 Duration : 23 min 55 s Bit rate : 128 kb/s Channel(s) : 2 channels Channel layout : L R Sampling rate : 44.1 kHz Frame rate : 43.066 FPS (1024 SPF) Compression mode : Lossy Stream size : 21.9 MiB (4%) Writing library : Lavc58.91.100 aac Language : English Default : No Forced : No Text #1 ID : 4 Format : ASS Codec ID : S_TEXT/ASS Codec ID/Info : Advanced Sub Station Alpha Duration : 23 min 55 s Bit rate : 172 b/s Count of elements : 478 Compression mode : Lossless Stream size : 30.1 KiB (0%) Title : Eng subs Writing library : Lavc58.91.100 ssa Language : English Default : Yes Forced : No Text #2 ID : 5 Format : ASS Codec ID : S_TEXT/ASS Codec ID/Info : Advanced Sub Station Alpha Duration : 23 min 55 s Bit rate : 47 b/s Count of elements : 69 Compression mode : Lossless Stream size : 7.93 KiB (0%) Title : English (US) / English (US) Writing library : Lavc58.91.100 ssa Language : English Default : No Forced : No

File list

  • [ShouryuuReppa] Jujutsu Kaisen 01 ~ 24 1080p [Dual-Audio][HEVC][x265][10bit][AAC]
    • [ShouryuuReppa] Jujutsu Kaisen 01 1080p [Dual-Audio][HEVC][x265][10bit][AAC].mkv (531.9 MiB)
    • [ShouryuuReppa] Jujutsu Kaisen 02 1080p [Dual-Audio][HEVC][x265][10bit][AAC].mkv (494.9 MiB)
    • [ShouryuuReppa] Jujutsu Kaisen 03 1080p [Dual-Audio][HEVC][x265][10bit][AAC].mkv (537.2 MiB)
    • [ShouryuuReppa] Jujutsu Kaisen 04 1080p [Dual-Audio][HEVC][x265][10bit][AAC].mkv (548.5 MiB)
    • [ShouryuuReppa] Jujutsu Kaisen 05 1080p [Dual-Audio][HEVC][x265][10bit][AAC].mkv (488.1 MiB)
    • [ShouryuuReppa] Jujutsu Kaisen 06 1080p [Dual-Audio][HEVC][x265][10bit][AAC].mkv (478.2 MiB)
    • [ShouryuuReppa] Jujutsu Kaisen 07 1080p [Dual-Audio][HEVC][x265][10bit][AAC].mkv (748.6 MiB)
    • [ShouryuuReppa] Jujutsu Kaisen 08 1080p [Dual-Audio][HEVC][x265][10bit][AAC].mkv (497.1 MiB)
    • [ShouryuuReppa] Jujutsu Kaisen 09 1080p [Dual-Audio][HEVC][x265][10bit][AAC].mkv (556.2 MiB)
    • [ShouryuuReppa] Jujutsu Kaisen 10 1080p [Dual-Audio][HEVC][x265][10bit][AAC].mkv (554.8 MiB)
    • [ShouryuuReppa] Jujutsu Kaisen 11 1080p [Dual-Audio][HEVC][x265][10bit][AAC].mkv (469.0 MiB)
    • [ShouryuuReppa] Jujutsu Kaisen 12 1080p [Dual-Audio][HEVC][x265][10bit][AAC].mkv (571.0 MiB)
    • [ShouryuuReppa] Jujutsu Kaisen 13 1080p [Dual-Audio][HEVC][x265][10bit][AAC].mkv (509.5 MiB)
    • [ShouryuuReppa] Jujutsu Kaisen 14 1080p [Dual-Audio][HEVC][x265][10bit][AAC].mkv (483.1 MiB)
    • [ShouryuuReppa] Jujutsu Kaisen 15 1080p [Dual-Audio][HEVC][x265][10bit][AAC].mkv (683.4 MiB)
    • [ShouryuuReppa] Jujutsu Kaisen 16 1080p [Dual-Audio][HEVC][x265][10bit][AAC].mkv (735.3 MiB)
    • [ShouryuuReppa] Jujutsu Kaisen 17 1080p [Dual-Audio][HEVC][x265][10bit][AAC].mkv (778.0 MiB)
    • [ShouryuuReppa] Jujutsu Kaisen 18 1080p [Dual-Audio][HEVC][x265][10bit][AAC].mkv (673.3 MiB)
    • [ShouryuuReppa] Jujutsu Kaisen 19 1080p [Dual-Audio][HEVC][x265][10bit][AAC].mkv (722.8 MiB)
    • [ShouryuuReppa] Jujutsu Kaisen 20 1080p [Dual-Audio][HEVC][x265][10bit][AAC].mkv (788.5 MiB)
    • [ShouryuuReppa] Jujutsu Kaisen 21 1080p [Dual-Audio][HEVC][x265][10bit][AAC].mkv (482.2 MiB)
    • [ShouryuuReppa] Jujutsu Kaisen 22 1080p [Dual-Audio][HEVC][x265][10bit][AAC].mkv (520.7 MiB)
    • [ShouryuuReppa] Jujutsu Kaisen 23 1080p [Dual-Audio][HEVC][x265][10bit][AAC].mkv (660.9 MiB)
    • [ShouryuuReppa] Jujutsu Kaisen 24 1080p [Dual-Audio][HEVC][x265][10bit][AAC].mkv (591.7 MiB)
Is it in Bluray?

ShouryuuReppa (uploader)

User
@Bhandari No it isn't in Bluray. As what's written on the description, the sources are from Subsplease and Golumpa. The only thing I spent here is TIME (time for reading and understanding guides, time for trial and error). I could have finish this earlier but I am also doing stuff concerning our anime website (I'm one of the uploaders). You can at least download one episode to see for yourself if the quality meets your standards. I don't have a powerful computer, due to that, reencoding took 4-5 hours for each episode. The encoding settings could tell you that you wont regret downloading it though there are still other choices specially those with lower file size if that's what you prefer. So, with all that being said, the final decision is yours.
I downloaded it, The quality is good but the size of the episodes are a little too high, in future projects could you please decrease the size, your work is much appreciated, thank you for the upload

ShouryuuReppa (uploader)

User
@Bhandari your very much welcome and thanks for giving it a try, ill do my very best to decrease the file size without hurting the quality in my futre uploads..thanks again, stay safe, stay @ home, watch anime!!