[SHN] Shelter (Anime Short Film) [BD] [1080p] (2016)

Category:
Date:
2021-08-03 21:05 UTC
Submitter:
Seeders:
4
File size:
1.7 GiB
Completed:
68
Info hash:
99fe196974d335a106d12b1143e6f2f0c3f13737
***UPDATE*** The DDL (https://mega.nz/folder/OzA1UCoB#qlBHmQbyEcUUAjPE0fpQWg) contains the updated video file (i.e. filename typo corrected, subtitle track language name corrected, chapters added, cover updated, etc.). ____________________________________________________________________ ![alt text](https://files.yande.re/jpeg/674b53879588f7b95d1fc61a4b9674eb/yande.re%20408998%20landscape%20rin_%28shelter%29%20shelter.jpg) ![alt text](https://files.yande.re/image/43378af5c291e90e460cc899d6b58578/yande.re%20453275%20dress%20rin_%28shelter%29%20shelter%20summer_dress.jpg) ![alt text](https://files.yande.re/image/5462fab65f1eeb63b7e06bf59a6e8140/yande.re%20372741%20azomo%20dress%20rin_%28shelter%29%20shelter.jpg) ____________________________________________________________________ Source for the video is the BDMV. I left the audio and video untouched. Source for the subtitles is the official YouTube video "Porter Robinson & Madeon - Shelter (Official Video) (Short Film with A-1 Pictures & Crunchyroll)" I edited them a bit more liberally than I usually do. The 'original/official' subs can be found in the YT video. Source for the song and commentary book is this torrent "f8d70dce9b1424bf54e075306fb18eb859553a03" Pictures are just random. ____________________________________________________________________ I won't be seeding this for long. I shared just because finding this in decent quality without hardsubs was... not something I managed to do. ____________________________________________________________________ General Unique ID : 51480157550069349301024463990664162 (0x9EA2AF06097BD99D083801751ABE2) Complete name : C:\Users\walia\Desktop\Folder\Rideos\New folder\[SHN] Shelter (Anime - Short Film) (2016)\Shelter (Porter Robinson & Madeon ) [A-1 Pictures & Crunchyroll].mkv Format : Matroska Format version : Version 4 File size : 1.53 GiB Duration : 6 min 12 s Overall bit rate mode : Variable Overall bit rate : 35.3 Mb/s Movie name : Shelter / Shelter ContentType : Music Video Description : A lonely teenager whose entire existence is a series of futuristic simulations learns the heartbreaking truth behind her life in isolation. Released date : 2016-10-18 Encoded date : UTC 2021-08-03 20:32:14 Writing application : mkvmerge v59.0.0 ('Shining Star') 64-bit Writing library : libebml v1.4.2 + libmatroska v1.6.4 / Lavf58.45.100 Cover : Yes Attachments : cover.jpg / kodi-metadata ACTOR : Sachika Misawa ARTIST : Sachika Misawa DATE_RECORDED : 2016-10-18 DIRECTOR : Toshifumi Akai GENRE : Adventure, Animation LAW_RATING : G PRODUCER : Tomonori Ochikoshi, Yuichi Fukushima, Vincent Shortino PRODUCTION_STUDIO : A-1 Pictures RATING : G SUMMARY : A lonely teenager whose entire existence is a series of futuristic simulations learns the heartbreaking truth behind her life in isolation. SYNOPSIS : Shelter tells the story of Rin, a 17-year-old girl who lives her life inside of a futuristic simulation completely by herself in infinite, beautiful loneliness. Each day, Rin awakens in virtual reality and uses a tablet which controls the simulation to create a new, different, beautiful world for herself. Until one day, everything changes, and Rin comes to learn the true origins behind her life inside a simulation. / / / Director / Toshifumi Akai / / Writer / Porter Robinson / / Star / Sachika Misawa(voice) Video ID : 1 ID in the original source m : 4113 (0x1011) Format : AVC Format/Info : Advanced Video Codec Format profile : High@L4.1 Format settings : CABAC / 4 Ref Frames Format settings, CABAC : Yes Format settings, Reference : 4 frames Codec ID : V_MPEG4/ISO/AVC Duration : 6 min 12 s Bit rate mode : Variable Bit rate : 32.9 Mb/s Maximum bit rate : 38.0 Mb/s Width : 1 920 pixels Height : 1 080 pixels Display aspect ratio : 16:9 Frame rate mode : Constant Frame rate : 23.976 (24000/1001) FPS Color space : YUV Chroma subsampling : 4:2:0 Bit depth : 8 bits Scan type : Progressive Bits/(Pixel*Frame) : 0.663 Stream size : 1.43 GiB (93%) Title : [AVC/H.264] BDMV [SHN] Language : Multiple languages Default : Yes Forced : No Original source medium : Blu-ray Audio ID : 2 ID in the original source m : 4352 (0x1100) Format : PCM Format settings : Little / Signed Codec ID : A_PCM/INT/LIT Duration : 6 min 12 s Bit rate mode : Constant Bit rate : 2 304 kb/s Channel(s) : 2 channels Sampling rate : 48.0 kHz Frame rate : 30.002 FPS (1600 SPF) Bit depth : 24 bits Stream size : 102 MiB (7%) Title : [PCM] BDMV [SHN] (en) (ja) Language : Multiple languages Default : Yes Forced : No Original source medium : Blu-ray Text ID : 3 Format : ASS Codec ID : S_TEXT/ASS Codec ID/Info : Advanced Sub Station Alpha Duration : 5 min 37 s Bit rate : 58 b/s Count of elements : 44 Compression mode : Lossless Stream size : 2.42 KiB (0%) Title : [ASS] [SHN] (en) (ja) Language : Multiple languages Default : Yes Forced : No

File list

  • [SHN] Shelter (Anime Short Film) [BD] [1080p] (2016)
    • Commentary Book (2017)
      • Shelter The Animation Commentary Book (2017) (Digital).cbz (72.5 MiB)
      • Shelter The Animation Commentary Book (2017) (Digital).epub (55.6 MiB)
    • Extra
      • Subtitles - Stripped Styles.srt (3.1 KiB)
      • info.txt (461 Bytes)
      • mediainfo.txt (9.5 KiB)
    • Music
      • Shelter.flac (32.3 MiB)
    • Pictures
      • protection.jpg (203.2 KiB)
      • refuge.jpg (925.5 KiB)
      • sanctuary.jpg (241.0 KiB)
      • shelter.jpg (92.5 KiB)
      • shield.jpg (201.4 KiB)
    • Shelter (Porter Robinson & Madeon ) [A-1 Pictures & Crunchyroll].mkv (1.5 GiB)

Phantom132 (uploader)

User
The extra space in the video file name was a mistake. *apologies Try to keep the torrent alive. My internet... is suboptimal. Also this is the DDL ( it might help): https://mega.nz/folder/OzA1UCoB#qlBHmQbyEcUUAjPE0fpQWg This just has a few extra high-res. images.
Thank You Very Much <3
Mods, fresh off a day of deleting every Star Wars: Visions torrent, have stated all Shelter torrents are soon to follow, citing case of "Basically v. Spongebob". Film at eleven