My.Teen.Romantic.Comedy.SNAFU.S03.1080p.Blu-Ray.10-Bit.Dual-Audio.DTS-HD.x265-iAHD

Category:
Date:
2021-07-30 00:33 UTC
Submitter:
Seeders:
12
Information:
No information.
Leechers:
0
File size:
12.9 GiB
Completed:
776
Info hash:
0b98a5611b32eaa1a97d1cbb22199a428cab2e41
Video ID : 1 Format : HEVC Format/Info : High Efficiency Video Coding Format profile : Main 10@L5@Main Codec ID : V_MPEGH/ISO/HEVC Duration : 24 min 7 s Bit rate : 3 551 kb/s Width : 1 920 pixels Height : 1 080 pixels Display aspect ratio : 16:9 Frame rate mode : Constant Frame rate : 23.976 (24000/1001) FPS Color space : YUV Chroma subsampling : 4:2:0 Bit depth : 10 bits Bits/(Pixel*Frame) : 0.071 Stream size : 613 MiB (53%) Writing library : x265 3.5+1-f0c1022b6:[Windows][clang 12.0.0][64 bit] 10bit Encoding settings : cpuid=1111039 / frame-threads=4 / numa-pools=16 / wpp / no-pmode / no-pme / no-psnr / no-ssim / log-level=2 / input-csp=1 / input-res=1920x1080 / interlace=0 / total-frames=0 / level-idc=0 / high-tier=1 / uhd-bd=0 / ref=6 / no-allow-non-conformance / no-repeat-headers / annexb / no-aud / no-hrd / info / hash=0 / no-temporal-layers / open-gop / min-keyint=24 / keyint=240 / gop-lookahead=0 / bframes=16 / b-adapt=2 / b-pyramid / bframe-bias=0 / rc-lookahead=50 / lookahead-slices=4 / scenecut=40 / hist-scenecut=0 / radl=0 / no-splice / no-intra-refresh / ctu=32 / min-cu-size=8 / no-rect / no-amp / max-tu-size=32 / tu-inter-depth=1 / tu-intra-depth=3 / limit-tu=0 / rdoq-level=2 / dynamic-rd=0.00 / no-ssim-rd / signhide / tskip / nr-intra=0 / nr-inter=0 / no-constrained-intra / no-strong-intra-smoothing / max-merge=3 / limit-refs=3 / limit-modes / me=3 / subme=3 / merange=57 / temporal-mvp / no-frame-dup / no-hme / weightp / no-weightb / no-analyze-src-pics / deblock=1:1 / no-sao / no-sao-non-deblock / rd=4 / selective-sao=0 / no-early-skip / rskip / no-fast-intra / tskip-fast / no-cu-lossless / no-b-intra / no-splitrd-skip / rdpenalty=0 / psy-rd=0.80 / psy-rdoq=2.00 / no-rd-refine / no-lossless / cbqpoffs=0 / crqpoffs=0 / rc=crf / crf=16.0 / qcomp=0.60 / qpstep=4 / stats-write=0 / stats-read=0 / ipratio=1.40 / pbratio=1.30 / aq-mode=3 / aq-strength=1.25 / cutree / zone-count=0 / no-strict-cbr / qg-size=32 / no-rc-grain / qpmax=69 / qpmin=0 / no-const-vbv / sar=1 / overscan=0 / videoformat=5 / range=0 / colorprim=1 / transfer=1 / colormatrix=1 / chromaloc=0 / display-window=0 / cll=0,0 / min-luma=0 / max-luma=1023 / log2-max-poc-lsb=8 / vui-timing-info / vui-hrd-info / slices=1 / no-opt-qp-pps / no-opt-ref-list-length-pps / no-multi-pass-opt-rps / scenecut-bias=0.05 / hist-threshold=0.03 / no-opt-cu-delta-qp / no-aq-motion / no-hdr10 / no-hdr10-opt / no-dhdr10-opt / no-idr-recovery-sei / analysis-reuse-level=0 / analysis-save-reuse-level=0 / analysis-load-reuse-level=0 / scale-factor=0 / refine-intra=0 / refine-inter=0 / refine-mv=1 / refine-ctu-distortion=0 / no-limit-sao / ctu-info=0 / no-lowpass-dct / refine-analysis-type=0 / copy-pic=1 / max-ausize-factor=1.0 / no-dynamic-refine / no-single-sei / no-hevc-aq / no-svt / no-field / qp-adaptation-range=1.00 / scenecut-aware-qp=0conformance-window-offsets / right=0 / bottom=0 / decoder-max-rate=0 / no-vbv-live-multi-pass Language : Japanese Default : Yes Forced : No Color range : Limited Color primaries : BT.709 Transfer characteristics : BT.709 Matrix coefficients : BT.709 Audio #1 ID : 2 Format : DTS XLL Format/Info : Digital Theater Systems Commercial name : DTS-HD Master Audio Codec ID : A_DTS Duration : 24 min 7 s Bit rate mode : Variable Bit rate : 1 568 kb/s Channel(s) : 2 channels Channel layout : L R Sampling rate : 48.0 kHz Frame rate : 93.750 FPS (512 SPF) Bit depth : 24 bits Compression mode : Lossless Stream size : 271 MiB (23%) Language : English Default : Yes Forced : No Audio #2 ID : 3 Format : DTS XLL Format/Info : Digital Theater Systems Commercial name : DTS-HD Master Audio Codec ID : A_DTS Duration : 24 min 7 s Bit rate mode : Variable Bit rate : 1 568 kb/s Channel(s) : 2 channels Channel layout : L R Sampling rate : 48.0 kHz Frame rate : 93.750 FPS (512 SPF) Bit depth : 24 bits Compression mode : Lossless Stream size : 271 MiB (23%) Language : Japanese Default : Yes Forced : No Text #1 ID : 4 Format : PGS Muxing mode : zlib Codec ID : S_HDMV/PGS Codec ID/Info : Picture based subtitle format used on BDs/HD-DVDs Duration : 22 min 53 s Bit rate : 7 842 b/s Count of elements : 63 Stream size : 1.28 MiB (0%) Title : Signs / Songs Language : English Default : Yes Forced : No Text #2 ID : 5 Format : PGS Muxing mode : zlib Codec ID : S_HDMV/PGS Codec ID/Info : Picture based subtitle format used on BDs/HD-DVDs Duration : 24 min 4 s Bit rate : 63.2 kb/s Count of elements : 567 Stream size : 10.9 MiB (1%) Title : Dialogue Language : English Default : No Forced : No Menu 00:00:00.000 : Chapter 01 00:01:11.989 : Chapter 02 00:02:42.037 : Chapter 03 00:10:26.167 : Chapter 04 00:22:06.158 : Chapter 05 00:23:36.040 : Chapter 06

File list

  • My.Teen.Romantic.Comedy.SNAFU.S03.1080p.Blu-Ray.10-Bit.Dual-Audio.DTS-HD.x265-iAHD
    • My.Teen.Romantic.Comedy.SNAFU.S03E01.1080p.Blu-Ray.10-Bit.Dual-Audio.DTS-HD.x265-iAHD.mkv (1.1 GiB)
    • My.Teen.Romantic.Comedy.SNAFU.S03E02.1080p.Blu-Ray.10-Bit.Dual-Audio.DTS-HD.x265-iAHD.mkv (1.1 GiB)
    • My.Teen.Romantic.Comedy.SNAFU.S03E03.1080p.Blu-Ray.10-Bit.Dual-Audio.DTS-HD.x265-iAHD.mkv (1.1 GiB)
    • My.Teen.Romantic.Comedy.SNAFU.S03E04.1080p.Blu-Ray.10-Bit.Dual-Audio.DTS-HD.x265-iAHD.mkv (1.1 GiB)
    • My.Teen.Romantic.Comedy.SNAFU.S03E05.1080p.Blu-Ray.10-Bit.Dual-Audio.DTS-HD.x265-iAHD.mkv (1.1 GiB)
    • My.Teen.Romantic.Comedy.SNAFU.S03E06.1080p.Blu-Ray.10-Bit.Dual-Audio.DTS-HD.x265-iAHD.mkv (1.1 GiB)
    • My.Teen.Romantic.Comedy.SNAFU.S03E07.1080p.Blu-Ray.10-Bit.Dual-Audio.DTS-HD.x265-iAHD.mkv (1.1 GiB)
    • My.Teen.Romantic.Comedy.SNAFU.S03E08.1080p.Blu-Ray.10-Bit.Dual-Audio.DTS-HD.x265-iAHD.mkv (1.1 GiB)
    • My.Teen.Romantic.Comedy.SNAFU.S03E09.1080p.Blu-Ray.10-Bit.Dual-Audio.DTS-HD.x265-iAHD.mkv (1.1 GiB)
    • My.Teen.Romantic.Comedy.SNAFU.S03E10.1080p.Blu-Ray.10-Bit.Dual-Audio.DTS-HD.x265-iAHD.mkv (1.1 GiB)
    • My.Teen.Romantic.Comedy.SNAFU.S03E11.1080p.Blu-Ray.10-Bit.Dual-Audio.DTS-HD.x265-iAHD.mkv (1.0 GiB)
    • My.Teen.Romantic.Comedy.SNAFU.S03E12.1080p.Blu-Ray.10-Bit.Dual-Audio.DTS-HD.x265-iAHD.mkv (1.0 GiB)
Thanks as always. Looking forward to Black Clover Releases! 103+ which were released months ago :(
I would like to request **Toilet bound Hanako-kun** since there is not a single decent release elsewhere.
I second Hanako-kun!
Hey iaHQ, thank you for your encodes. Have a small request. Could you please take a look at "5 Centimeters per Second" for encoding please? Heard it is a good film, want to get the best encode out there for the play.