Vinland.Saga.S01.CUSTOM.MULTi.1080p.BluRay.x265-SceneGuardians (VF/VOSTFR/VOSTENG)

Category:
Date:
2021-07-26 07:44 UTC
Submitter:
Seeders:
10
Information:
Leechers:
1
File size:
9.1 GiB
Completed:
131
Info hash:
6ab2b17a14c5236be8b232c1c6c97959c7f35745
![alt text](https://cdn.myanimelist.net/images/anime/1048/102249l.webp?_gl=1*1d972fn*_ga*MTI3NDUxODI5NS4xNjA3OTQxNjk2*_ga_26FEP9527K*MTYyNzI4NDkwNS4xMTcuMC4xNjI3Mjg0OTA1LjYw) Source Video et Audio VO : [AkihitoSubs] https://nyaa.si/view/1303548 (Merci) Source Audio FR et Subs FR : [NanDesuKa] https://nyaa.si/view/1409920 (Merci) General Unique ID : 154016324405971710171383794987159334515 (0x73DE77116F718165599426AFD6C12E73) Complete name : Vinland.Saga.S01E01.CUSTOM.MULTi.1080p.BluRay.x265-SceneGuardians.mkv Format : Matroska Format version : Version 4 File size : 426 MiB Duration : 28 min 48 s Overall bit rate : 2 068 kb/s Encoded date : UTC 2021-07-26 07:11:15 Writing application : mkvmerge v59.0.0 ('Shining Star') 64-bit Writing library : libebml v1.4.2 + libmatroska v1.6.4 / Lavf58.45.100 Attachments : Brianne_s_hand.ttf / DJB Almost Perfect.ttf / FOT-NewCinemaAStd-D.otf / GenBasB.ttf / GenBasBI.ttf / IM_FELL_ENGLISH_PRO_ROMAN.OTF / KGShadowOfTheDay.ttf / Kozuka Mincho Pr6N B - EN Bold.ttf / times.ttf Video ID : 1 Format : HEVC Format/Info : High Efficiency Video Coding Format profile : Main 10@L5@Main Codec ID : V_MPEGH/ISO/HEVC Duration : 28 min 26 s Bit rate : 1 746 kb/s Width : 1 920 pixels Height : 1 080 pixels Display aspect ratio : 16:9 Frame rate mode : Constant Frame rate : 23.976 (24000/1001) FPS Color space : YUV Chroma subsampling : 4:2:0 Bit depth : 10 bits Bits/(Pixel*Frame) : 0.035 Stream size : 355 MiB (83%) Writing library : x265 3.3+1-f94b0d32737d:[Linux][GCC 8.3.0][64 bit] 10bit Encoding settings : cpuid=1111039 / frame-threads=3 / wpp / no-pmode / no-pme / no-psnr / no-ssim / log-level=2 / input-csp=1 / input-res=1920x1080 / interlace=0 / total-frames=0 / level-idc=0 / high-tier=1 / uhd-bd=0 / ref=6 / no-allow-non-conformance / no-repeat-headers / annexb / no-aud / no-hrd / info / hash=0 / no-temporal-layers / open-gop / min-keyint=23 / keyint=250 / gop-lookahead=0 / bframes=8 / b-adapt=2 / b-pyramid / bframe-bias=0 / rc-lookahead=25 / lookahead-slices=6 / scenecut=40 / hist-scenecut=0 / radl=0 / no-splice / no-intra-refresh / ctu=64 / min-cu-size=8 / no-rect / no-amp / max-tu-size=32 / tu-inter-depth=1 / tu-intra-depth=1 / limit-tu=0 / rdoq-level=2 / dynamic-rd=0.00 / no-ssim-rd / signhide / no-tskip / nr-intra=0 / nr-inter=0 / no-constrained-intra / strong-intra-smoothing / max-merge=3 / limit-refs=1 / no-limit-modes / me=1 / subme=5 / merange=57 / temporal-mvp / no-frame-dup / no-hme / weightp / no-weightb / no-analyze-src-pics / deblock=0:0 / no-sao / no-sao-non-deblock / rd=6 / selective-sao=0 / early-skip / rskip / no-fast-intra / no-tskip-fast / no-cu-lossless / b-intra / no-splitrd-skip / rdpenalty=0 / psy-rd=2.00 / psy-rdoq=0.00 / rd-refine / no-lossless / cbqpoffs=0 / crqpoffs=0 / rc=crf / crf=21.0 / qcomp=0.60 / qpstep=4 / stats-write=0 / stats-read=0 / ipratio=1.40 / pbratio=1.30 / aq-mode=3 / aq-strength=0.85 / cutree / zone-count=0 / no-strict-cbr / qg-size=32 / no-rc-grain / qpmax=69 / qpmin=0 / no-const-vbv / sar=0 / overscan=0 / videoformat=5 / range=0 / colorprim=2 / transfer=2 / colormatrix=2 / chromaloc=0 / display-window=0 / cll=0,0 / min-luma=0 / max-luma=1023 / log2-max-poc-lsb=8 / vui-timing-info / vui-hrd-info / slices=1 / no-opt-qp-pps / no-opt-ref-list-length-pps / no-multi-pass-opt-rps / scenecut-bias=0.05 / hist-threshold=0.01 / no-opt-cu-delta-qp / no-aq-motion / no-hdr10 / no-hdr10-opt / no-dhdr10-opt / no-idr-recovery-sei / analysis-reuse-level=0 / analysis-save-reuse-level=0 / analysis-load-reuse-level=0 / scale-factor=0 / refine-intra=0 / refine-inter=0 / refine-mv=1 / refine-ctu-distortion=0 / no-limit-sao / ctu-info=0 / no-lowpass-dct / refine-analysis-type=0 / copy-pic=1 / max-ausize-factor=1.0 / no-dynamic-refine / no-single-sei / no-hevc-aq / no-svt / no-field / qp-adaptation-range=1.00 / no-scenecut-aware-qpconformance-window-offsets / right=0 / bottom=0 Default : Yes Forced : No Color range : Limited Audio #1 ID : 2 Format : Opus Codec ID : A_OPUS Duration : 28 min 26 s Bit rate : 183 kb/s Channel(s) : 2 channels Channel layout : L R Sampling rate : 48.0 kHz Frame rate : 50.000 FPS (960 SPF) Compression mode : Lossy Stream size : 37.2 MiB (9%) Title : Japanese (JP BDMV, 2.0 Ch 192kbps) Writing library : Lavc58.91.100 libopus Language : Japanese Default : Yes Forced : No Audio #2 ID : 3 Format : E-AC-3 Format/Info : Enhanced AC-3 Commercial name : Dolby Digital Plus Codec ID : A_EAC3 Duration : 28 min 48 s Bit rate mode : Constant Bit rate : 128 kb/s Channel(s) : 2 channels Channel layout : L R Sampling rate : 48.0 kHz Frame rate : 31.250 FPS (1536 SPF) Compression mode : Lossy Stream size : 26.4 MiB (6%) Language : French Service kind : Complete Main Default : Yes Forced : No Text #1 ID : 4 Format : ASS Codec ID : S_TEXT/ASS Codec ID/Info : Advanced Sub Station Alpha Duration : 27 min 53 s Bit rate : 460 b/s Count of elements : 388 Compression mode : Lossless Stream size : 94.0 KiB (0%) Title : Dialogue (Foxtrot/SCY) Language : English Default : Yes Forced : No Text #2 ID : 5 Format : UTF-8 Codec ID : S_TEXT/UTF8 Codec ID/Info : UTF-8 Plain Text Duration : 28 min 4 s Bit rate : 47 b/s Count of elements : 327 Stream size : 9.77 KiB (0%) Language : French Default : No Forced : No Menu 00:00:00.000 : :Prologue 00:03:58.029 : :Opening 00:05:31.039 : :Part A 00:14:11.017 : :Part B 00:26:56.073 : :Ending PS : s’il vous plaît, pourriez-vous continuer à seeder pour que ce torrent puisse vivre. Merci. PS: please, could you keep seeding in order for this torrent to live. Thank you.

File list

  • Vinland.Saga.S01.CUSTOM.MULTi.1080p.BluRay.x265-SceneGuardians
    • Vinland.Saga.S01E01.CUSTOM.MULTi.1080p.BluRay.x265-SceneGuardians.mkv (426.0 MiB)
    • Vinland.Saga.S01E02.CUSTOM.MULTi.1080p.BluRay.x265-SceneGuardians.mkv (304.9 MiB)
    • Vinland.Saga.S01E03.CUSTOM.MULTi.1080p.BluRay.x265-SceneGuardians.mkv (326.8 MiB)
    • Vinland.Saga.S01E04.CUSTOM.MULTi.1080p.BluRay.x265-SceneGuardians.mkv (308.3 MiB)
    • Vinland.Saga.S01E05.CUSTOM.MULTi.1080p.BluRay.x265-SceneGuardians.mkv (343.0 MiB)
    • Vinland.Saga.S01E06.CUSTOM.MULTi.1080p.BluRay.x265-SceneGuardians.mkv (360.4 MiB)
    • Vinland.Saga.S01E07.CUSTOM.MULTi.1080p.BluRay.x265-SceneGuardians.mkv (389.5 MiB)
    • Vinland.Saga.S01E08.CUSTOM.MULTi.1080p.BluRay.x265-SceneGuardians.mkv (336.5 MiB)
    • Vinland.Saga.S01E09.CUSTOM.MULTi.1080p.BluRay.x265-SceneGuardians.mkv (348.5 MiB)
    • Vinland.Saga.S01E10.CUSTOM.MULTi.1080p.BluRay.x265-SceneGuardians.mkv (319.9 MiB)
    • Vinland.Saga.S01E11.CUSTOM.MULTi.1080p.BluRay.x265-SceneGuardians.mkv (469.2 MiB)
    • Vinland.Saga.S01E12.CUSTOM.MULTi.1080p.BluRay.x265-SceneGuardians.mkv (354.6 MiB)
    • Vinland.Saga.S01E13.CUSTOM.MULTi.1080p.BluRay.x265-SceneGuardians.mkv (417.3 MiB)
    • Vinland.Saga.S01E14.CUSTOM.MULTi.1080p.BluRay.x265-SceneGuardians.mkv (424.9 MiB)
    • Vinland.Saga.S01E15.CUSTOM.MULTi.1080p.BluRay.x265-SceneGuardians.mkv (375.9 MiB)
    • Vinland.Saga.S01E16.CUSTOM.MULTi.1080p.BluRay.x265-SceneGuardians.mkv (395.1 MiB)
    • Vinland.Saga.S01E17.CUSTOM.MULTi.1080p.BluRay.x265-SceneGuardians.mkv (507.0 MiB)
    • Vinland.Saga.S01E18.CUSTOM.MULTi.1080p.BluRay.x265-SceneGuardians.mkv (451.7 MiB)
    • Vinland.Saga.S01E19.CUSTOM.MULTi.1080p.BluRay.x265-SceneGuardians.mkv (409.1 MiB)
    • Vinland.Saga.S01E20.CUSTOM.MULTi.1080p.BluRay.x265-SceneGuardians.mkv (391.4 MiB)
    • Vinland.Saga.S01E21.CUSTOM.MULTi.1080p.BluRay.x265-SceneGuardians.mkv (395.7 MiB)
    • Vinland.Saga.S01E22.CUSTOM.MULTi.1080p.BluRay.x265-SceneGuardians.mkv (455.2 MiB)
    • Vinland.Saga.S01E23.CUSTOM.MULTi.1080p.BluRay.x265-SceneGuardians.mkv (379.8 MiB)
    • Vinland.Saga.S01E24.CUSTOM.MULTi.1080p.BluRay.x265-SceneGuardians.mkv (417.7 MiB)
Wow dude! Looks promising. Merci beaucoup pour ton effort.