[neoHEVC] Vinland Saga [Season 1] [BD 1080p x265 HEVC AAC OPUS] [Dual Audio]

Category:
Date:
2021-07-24 11:05 UTC
Submitter:
Seeders:
12
Information:
Leechers:
0
File size:
9.1 GiB
Completed:
290
Info hash:
c43f51d7cd8f55da9e2eb0e443d006fd9cb8cae4
![](https://i.imgur.com/RBlGp48.png) *Join **[Discord](https://discord.gg/KYKYZUh)** for Current Projects, Encode-Requests and Seed-Request in case of no available seeds.* **Vinland Saga [Season 1]** *with `Dual Audio (Jpn/Eng)` and `Eng Subs` in `BD 1080p HEVC`* Remux of [AkihitoSubs] with added English audio tracks from [KS (Netflix Dub)]. *Side Note: Thanks [AkihitoSubs] for the great encode and [Foxtrot/SCY] for subtitles. I was anxiously waiting for an English dub for this show. There will be 2 different companies dubbing this in English (Netflix and Sentai). The one used in here is from Netflix. You can check out a couple different lines from both companies over **[here](https://www.youtube.com/watch?v=NiGSAot-Rpg)** to make the decision easier with which one you want to go. I like the Netflix dub that is in here judging from the few lines that are shown in that linked youtube clip. Hard to decide with just these couple lines but maybe it helps =).* ![](https://i.imgur.com/4iegWLL.png) **[Trailer](https://www.youtube.com/watch?v=f8JrZ7Q_p-8)** ![](https://i.imgur.com/3UxGuWB.png) ![](https://i.imgur.com/ZCtSawZ.png) **[MyAnimeList](https://myanimelist.net/anime/37521/Vinland_Saga)** --- **Synopsis** Young Thorfinn grew up listening to the stories of old sailors that had traveled the ocean and reached the place of legend, Vinland. It's said to be warm and fertile, a place where there would be no need for fighting—not at all like the frozen village in Iceland where he was born, and certainly not like his current life as a mercenary. War is his home now. Though his father once told him, "You have no enemies, nobody does. There is nobody who it's okay to hurt," as he grew, Thorfinn knew that nothing was further from the truth. The war between England and the Danes grows worse with each passing year. Death has become commonplace, and the viking mercenaries are loving every moment of it. Allying with either side will cause a massive swing in the balance of power, and the vikings are happy to make names for themselves and take any spoils they earn along the way. Among the chaos, Thorfinn must take his revenge and kill Askeladd, the man who murdered his father. The only paradise for the vikings, it seems, is the era of war and death that rages on. ![](https://i.imgur.com/6XZ4noC.png) --- **Language Options** I included two simple scripts that you can apply to these files to do the following (Windows only): 1. Change [Default Tracks]: Switches default tracks to *A:Japanese S:Dialog* 2. Make [Single Audio]: Throws out *English audio* and *Signs&Songs subtitles* tracks To apply these put all the video files into the *Language Options* folder and run the .bat file. --- **Source** 🗃️ Video, JPN Audio and Subtitles: **[[AkihitoSubs]](https://nyaa.si/view/1303548)** 🗃️ ENG Audio: **[[KS (Netflix Dub)]](https://nyaa.si/view/1412226)** 💬 *Subtitles Info: [Foxtrot/SCY] - Format `ASS`* --- **Media Info** 🆔 [Full Mediainfo incl. Encoder Settings](https://pastebin.com/ddzwcZAa) ``` General Unique ID : 133953431505028290207615371348804234988 (0x64C67E13C095564189924D74C989EEEC) Complete name : Vinland Saga - S01E01.mkv Format : Matroska Format version : Version 4 File size : 426 MiB Duration : 28 min 26 s Overall bit rate : 2 093 kb/s Movie name : Vinland Saga - S01E01 Encoded date : UTC 2021-07-24 09:50:29 Writing application : mkvmerge v57.0.0 ('Till The End') 64-bit Writing library : libebml v1.4.2 + libmatroska v1.6.4 / Lavf58.45.100 Attachments : Brianne_s_hand.ttf / DJB Almost Perfect.ttf / FOT-NewCinemaAStd-D.otf / GenBasB.ttf / GenBasBI.ttf / IM_FELL_ENGLISH_PRO_ROMAN.OTF / KGShadowOfTheDay.ttf / Kozuka Mincho Pr6N B - EN Bold.ttf / times.ttf Video ID : 1 Format : HEVC Format/Info : High Efficiency Video Coding Format profile : Main 10@L5@Main Codec ID : V_MPEGH/ISO/HEVC Duration : 28 min 26 s Bit rate : 1 746 kb/s Width : 1 920 pixels Height : 1 080 pixels Display aspect ratio : 16:9 Frame rate mode : Constant Frame rate : 23.976 (24000/1001) FPS Color space : YUV Chroma subsampling : 4:2:0 Bit depth : 10 bits Bits/(Pixel*Frame) : 0.035 Stream size : 355 MiB (83%) Writing library : x265 3.3+1-f94b0d32737d:[Linux][GCC 8.3.0][64 bit] 10bit Encoding settings : <Check Link Above> Default : Yes Forced : No Color range : Limited Audio #1 ID : 2 Format : AAC LC SBR Format/Info : Advanced Audio Codec Low Complexity with Spectral Band Replication Commercial name : HE-AAC Format settings : Explicit Codec ID : A_AAC-2 Duration : 28 min 26 s Bit rate : 128 kb/s Channel(s) : 2 channels Channel layout : L R Sampling rate : 48.0 kHz Frame rate : 23.438 FPS (2048 SPF) Compression mode : Lossy Stream size : 26.0 MiB (6%) Title : Stereo - ENG (AAC) Language : English Default : Yes Forced : No Audio #2 ID : 3 Format : Opus Codec ID : A_OPUS Duration : 28 min 26 s Bit rate : 183 kb/s Channel(s) : 2 channels Channel layout : L R Sampling rate : 48.0 kHz Frame rate : 50.000 FPS (960 SPF) Compression mode : Lossy Stream size : 37.2 MiB (9%) Title : Stereo - JPN (OPUS) Writing library : Lavc58.91.100 libopus Language : Japanese Default : No Forced : No Text #1 ID : 4 Format : ASS Codec ID : S_TEXT/ASS Codec ID/Info : Advanced Sub Station Alpha Duration : 27 min 11 s Bit rate : 390 b/s Count of elements : 81 Compression mode : Lossless Stream size : 77.8 KiB (0%) Title : Signs & Songs - ENG (ASS) Language : English Default : Yes Forced : No Text #2 ID : 5 Format : ASS Codec ID : S_TEXT/ASS Codec ID/Info : Advanced Sub Station Alpha Duration : 27 min 53 s Bit rate : 460 b/s Count of elements : 388 Compression mode : Lossless Stream size : 94.0 KiB (0%) Title : Dialog - ENG (ASS) Language : English Default : No Forced : No Menu 00:00:00.000 : :Prologue 00:03:58.029 : :Opening 00:05:31.039 : :Part A 00:14:11.017 : :Part B 00:26:56.073 : :Ending ```

File list

  • [neoHEVC] Vinland Saga [Season 1] [BD 1080p x265 HEVC AAC OPUS] [Dual Audio]
    • Language Options
      • 1. Change [Default Tracks].bat (162 Bytes)
      • 2. Make [Single Audio] Japanese.bat (166 Bytes)
      • mkvmerge.exe (9.6 MiB)
      • readme.txt (411 Bytes)
    • Vinland Saga - S01E01.mkv (425.8 MiB)
    • Vinland Saga - S01E02.mkv (304.8 MiB)
    • Vinland Saga - S01E03.mkv (326.5 MiB)
    • Vinland Saga - S01E04.mkv (308.0 MiB)
    • Vinland Saga - S01E05.mkv (342.8 MiB)
    • Vinland Saga - S01E06.mkv (360.3 MiB)
    • Vinland Saga - S01E07.mkv (389.4 MiB)
    • Vinland Saga - S01E08.mkv (336.5 MiB)
    • Vinland Saga - S01E09.mkv (348.2 MiB)
    • Vinland Saga - S01E10.mkv (319.6 MiB)
    • Vinland Saga - S01E11.mkv (468.9 MiB)
    • Vinland Saga - S01E12.mkv (354.5 MiB)
    • Vinland Saga - S01E13.mkv (417.0 MiB)
    • Vinland Saga - S01E14.mkv (424.7 MiB)
    • Vinland Saga - S01E15.mkv (375.9 MiB)
    • Vinland Saga - S01E16.mkv (394.9 MiB)
    • Vinland Saga - S01E17.mkv (506.8 MiB)
    • Vinland Saga - S01E18.mkv (451.4 MiB)
    • Vinland Saga - S01E19.mkv (408.9 MiB)
    • Vinland Saga - S01E20.mkv (391.5 MiB)
    • Vinland Saga - S01E21.mkv (395.4 MiB)
    • Vinland Saga - S01E22.mkv (455.0 MiB)
    • Vinland Saga - S01E23.mkv (379.7 MiB)
    • Vinland Saga - S01E24.mkv (417.5 MiB)
Thanks! Can you please do Eizouken?

neoborn (uploader)

User
**@geha714** I made my own shitty little encode and put in [GJM] subtitles already for that one. Currently waiting for an English dub. I'm not 100% sure that there will be one but I recall reading something from CR/Sentai for the near future. Let's wait and see.
> There will be 2 different companies dubbing this in English (Netflix and Sentai). WTF
Which one is it ?

neoborn (uploader)

User
**@Laserbunny** It is Netflix. The sentai dub isn't out yet. Should be out by the end of next month (31.08.21)
Thanks @neoborn , I think I will wait a bit , Maybe someone will do a triple audio encode or something with both Netflix and Sentai dubs once Sentai dub is out.
@Neoborn Thanks Buddy
Here's a Dub Comparison of the netflix dub and the sentai dub: https://www.youtube.com/watch?v=NiGSAot-Rpg&t=1s yall can either wait for the sentai dub(which is next month) or you can watch the netflix dub now by downloading this torrent.
thanks a ton for this :)
Thanks for this Fingers crossed for a triple audio version next month tho.

neoborn (uploader)

User
**@Ziege** **[Check this for tripple audio](https://nyaa.si/view/1421653)**