[IrizaRaws] Kakushigoto Himegoto wa Nandesuka (BDRip 1920x1080 x264 10bit FLAC DTS)

Category:
Date:
2021-07-17 17:23 UTC
Submitter:
Seeders:
2
Information:
No information.
Leechers:
0
File size:
13.0 GiB
Completed:
61
Info hash:
0abfa3b8dda302b424930abc5a42d9f30a254067
Hello! My rips are made from Japanese BDMV, unless stated otherwise. In terms of video quality, my raws should be comparable to ReinForce (since I started from their settings, and then modified it). I don’t use AA, blur, denoise and other such “enhancements”. Basically, the idea of my encodes will be: as similar to BDMV as possible, while reducing size 3-4 times. Also I will rip Audio Commentaries, interview’s and such things (everything, that’s on BD). Again, If you found any Bugs, mistakes, problems etc. Please comment! If needed I will reencode. About this Anime: https://myanimelist.net/anime/44586 https://anidb.net/anime/15922 SEED PLEASE! Acknowledgments for BDMV: Bought and processed by Voice Memories MediaInfo: General Unique ID : 310110597306901923503352083640252440515 (0xE94D20E829946D6FECF675B459D51FC3) Complete name : D:\work\Rip\Kakushigoto Himegoto wa Nandesuka\[IrizaRaws] Kakushigoto Himegoto wa Nandesuka (BDRip 1920x1080 x264 10bit FLAC DTS)\[IrizaRaws] Kakushigoto Himegoto wa Nandesuka (BDRip 1920x1080 x264 10bit FLAC DTS).mkv Format : Matroska Format version : Version 4 / Version 2 File size : 12.7 GiB Duration : 1 h 18 min Overall bit rate mode : Variable Overall bit rate : 23.1 Mb/s Encoded date : UTC 2021-07-16 17:23:22 Writing application : mkvmerge v57.0.0 ('Till The End') 64-bit Writing library : libebml v1.4.2 + libmatroska v1.6.4 Video ID : 1 Format : AVC Format/Info : Advanced Video Codec Format profile : High 10@L5.2 Format settings : CABAC / 8 Ref Frames Format settings, CABAC : Yes Format settings, RefFrames : 8 frames Codec ID : V_MPEG4/ISO/AVC Duration : 1 h 18 min Bit rate : 18.1 Mb/s Width : 1 920 pixels Height : 1 080 pixels Display aspect ratio : 16:9 Frame rate mode : Constant Frame rate : 23.976 (24000/1001) FPS Color space : YUV Chroma subsampling : 4:2:0 Bit depth : 10 bits Scan type : Progressive Bits/(Pixel*Frame) : 0.365 Stream size : 9.97 GiB (79%) Writing library : x264 core 163 r3059 b684ebe Encoding settings : cabac=1 / ref=8 / deblock=1:-2:-2 / analyse=0x3:0x113 / me=umh / subme=9 / psy=1 / psy_rd=0.70:0.00 / mixed_ref=0 / me_range=32 / chroma_me=1 / trellis=2 / 8x8dct=1 / cqm=0 / deadzone=21,11 / fast_pskip=0 / chroma_qp_offset=-2 / threads=22 / lookahead_threads=3 / sliced_threads=0 / nr=0 / decimate=1 / interlaced=0 / bluray_compat=0 / constrained_intra=0 / bframes=9 / b_pyramid=2 / b_adapt=2 / b_bias=0 / direct=0 / weightb=1 / open_gop=0 / weightp=2 / keyint=250 / keyint_min=23 / scenecut=40 / intra_refresh=0 / rc=crf / mbtree=0 / crf=17.5 / qcomp=1.00 / qpmin=0 / qpmax=40 / qpstep=4 / ip_ratio=1.40 / pb_ratio=1.30 / aq=1:1.00 Default : Yes Forced : No Audio #1 ID : 2 Format : FLAC Format/Info : Free Lossless Audio Codec Codec ID : A_FLAC Duration : 1 h 18 min Bit rate mode : Variable Bit rate : 1 385 kb/s Channel(s) : 2 channels Channel positions : Front: L R Sampling rate : 48.0 kHz Frame rate : 11.719 FPS (4096 SPF) Bit depth : 24 bits Stream size : 779 MiB (6%) Title : Main FLAC 2.0 Writing library : libFLAC 1.3.3 (UTC 2019-08-04) Language : Japanese Default : Yes Forced : No Audio #2 ID : 3 Format : DTS Format/Info : Digital Theater Systems Format profile : MA / Core Mode : 16 Format settings, Endianness : Big Codec ID : A_DTS Duration : 1 h 18 min Bit rate mode : Variable / Constant Bit rate : 3 548 kb/s / 1 509 kb/s Channel(s) : 6 channels Channel positions : Front: L C R, Side: L R, LFE Sampling rate : 48.0 kHz Frame rate : 93.750 FPS (512 SPF) Bit depth : 24 bits Compression mode : Lossless / Lossy Stream size : 1.95 GiB (15%) Title : Main DTS 5.1 Language : Japanese Default : No Forced : No Menu 00:00:00.000 : Chapter 01 00:10:47.521 : Chapter 02 00:20:14.463 : Chapter 03 00:37:57.900 : Chapter 04 00:48:33.911 : Chapter 05 00:57:39.122 : Chapter 06 01:05:13.701 : Chapter 07 01:13:36.370 : Chapter 08

File list

  • [IrizaRaws] Kakushigoto Himegoto wa Nandesuka (BDRip 1920x1080 x264 10bit FLAC DTS)
    • Bonus
      • Menu
        • [IrizaRaws] Kakushigoto Himegoto wa Nandesuka Menu (BDRip 1920x1080 x264 10bit FLAC).mkv (34.6 MiB)
      • PV
        • [IrizaRaws] Kakushigoto Himegoto wa Nandesuka PV - 01 (BDRip 1920x1080 x264 10bit FLAC).mkv (15.9 MiB)
        • [IrizaRaws] Kakushigoto Himegoto wa Nandesuka PV - 02 (BDRip 1920x1080 x264 10bit FLAC).mkv (96.7 MiB)
      • Scans
        • Back.png (26.1 MiB)
        • Booklet - 01.png (16.4 MiB)
        • Booklet - 02.png (17.6 MiB)
        • Cover.png (48.8 MiB)
        • Disc.png (16.7 MiB)
        • Front.png (26.9 MiB)
        • OBI.png (3.5 MiB)
        • Side.png (6.4 MiB)
        • Storyboard - Back.png (14.1 MiB)
        • Storyboard - Front.png (19.0 MiB)
      • [IrizaRaws] Kakushigoto Himegoto wa Nandesuka Logo - 01 (BDRip 1920x1080 x264 10bit FLAC).mkv (765.9 KiB)
      • [IrizaRaws] Kakushigoto Himegoto wa Nandesuka Logo - 02 (BDRip 1920x1080 x264 10bit FLAC DTS).mkv (3.9 MiB)
    • [IrizaRaws] Kakushigoto Himegoto wa Nandesuka (BDRip 1920x1080 x264 10bit FLAC DTS).mkv (12.7 GiB)
thanksss any plan for idoly pride?

lorelei99 (uploader)

User
@SHICHIMIYA Current plan: Nobunaga-sensei no Osanazuma -> Idoly Pride
That's DTS-HD MA not DTS.