[MagicStar] Omimi ni Aimashitara. EP01 [WEBDL] [1080p] [AMZN]

Category:
Date:
2021-07-16 02:39 UTC
Submitter:
Seeders:
6
Information:
Leechers:
1
File size:
925.9 MiB
Completed:
508
Info hash:
ba77ea7334f59b9f6ad0563f8ba79e0cce2d3e9d
HD 1080p from Prime Video. ![alt text](https://i.ibb.co/ynJLVSR/95117992577.jpg) ![alt text](https://i.ibb.co/2FmynPt/Omimi-ni-Aimashitara-EP01-1080p-AMZN-WEB-DL-DDP2-0-H-264-Magic-Star-mkv.jpg) ``` General Unique ID : 262350228675143936669929035159578019068 (0xC55ED0EE0AB4729BBDAF27823ED304FC) Complete name : Omimi.ni.Aimashitara.EP01.1080p.AMZN.WEB-DL.DDP2.0.H.264-MagicStar.mkv Format : Matroska Format version : Version 4 File size : 926 MiB Duration : 24 min 0 s Overall bit rate : 5 391 kb/s Encoded date : UTC 2021-07-11 23:28:14 Writing application : mkvmerge v50.0.0 ('Awakenings') 64-bit Writing library : libebml v1.4.0 + libmatroska v1.6.2 Video ID : 1 Format : AVC Format/Info : Advanced Video Codec Format profile : High@L4 Format settings : CABAC / 4 Ref Frames Format settings, CABAC : Yes Format settings, Reference fra : 4 frames Codec ID : V_MPEG4/ISO/AVC Duration : 24 min 0 s Bit rate : 5 166 kb/s Width : 1 920 pixels Height : 1 080 pixels Display aspect ratio : 16:9 Frame rate mode : Constant Frame rate : 23.976 (24000/1001) FPS Color space : YUV Chroma subsampling : 4:2:0 Bit depth : 8 bits Scan type : Progressive Bits/(Pixel*Frame) : 0.104 Stream size : 887 MiB (96%) Default : Yes Forced : No Color range : Limited Color primaries : BT.709 Transfer characteristics : BT.709 Matrix coefficients : BT.709 Audio ID : 2 Format : E-AC-3 Format/Info : Enhanced AC-3 Commercial name : Dolby Digital Plus Codec ID : A_EAC3 Duration : 24 min 0 s Bit rate mode : Constant Bit rate : 224 kb/s Channel(s) : 2 channels Channel layout : L R Sampling rate : 48.0 kHz Frame rate : 31.250 FPS (1536 SPF) Compression mode : Lossy Stream size : 38.5 MiB (4%) Language : Japanese Service kind : Complete Main Default : Yes Forced : No ```

File list