[MagicStar] Hachigatsu wa Yoru no Batting Center de. EP01 [WEBDL] [1080p] [AMZN]

Category:
Date:
2021-07-16 02:27 UTC
Submitter:
Seeders:
8
Information:
Leechers:
0
File size:
802.0 MiB
Completed:
671
Info hash:
27dbfc1bab7041d965211c5b91dfb251e471c066
HD 1080p from Prime Video. ![alt text](https://i.ibb.co/vzXWj8W/95117518226.jpg) ![alt text](https://i.ibb.co/0Y5CbSs/Hachigatsu-wa-Yoru-no-Batting-Center-de-EP01-1080p-AMZN-WEB-DL-DDP2-0-H-264-Magic-Star-mkv.jpg) ``` General Unique ID : 23723475920643315967865177125398574041 (0x11D8F9AB0934BD81F58B1A2917C8F3D9) Complete name : Hachigatsu.wa.Yoru.no.Batting.Center.de.EP01.1080p.AMZN.WEB-DL.DDP2.0.H.264-MagicStar.mkv Format : Matroska Format version : Version 4 File size : 802 MiB Duration : 24 min 0 s Overall bit rate : 4 672 kb/s Encoded date : UTC 2021-07-15 05:49:52 Writing application : mkvmerge v50.0.0 ('Awakenings') 64-bit Writing library : libebml v1.4.0 + libmatroska v1.6.2 Video ID : 1 Format : AVC Format/Info : Advanced Video Codec Format profile : High@L4 Format settings : CABAC / 4 Ref Frames Format settings, CABAC : Yes Format settings, Reference fra : 4 frames Codec ID : V_MPEG4/ISO/AVC Duration : 24 min 0 s Bit rate : 4 446 kb/s Width : 1 920 pixels Height : 1 080 pixels Display aspect ratio : 16:9 Frame rate mode : Constant Frame rate : 23.976 (24000/1001) FPS Color space : YUV Chroma subsampling : 4:2:0 Bit depth : 8 bits Scan type : Progressive Bits/(Pixel*Frame) : 0.089 Stream size : 763 MiB (95%) Default : Yes Forced : No Color range : Limited Color primaries : BT.709 Transfer characteristics : BT.709 Matrix coefficients : BT.709 Audio ID : 2 Format : E-AC-3 Format/Info : Enhanced AC-3 Commercial name : Dolby Digital Plus Codec ID : A_EAC3 Duration : 24 min 0 s Bit rate mode : Constant Bit rate : 224 kb/s Channel(s) : 2 channels Channel layout : L R Sampling rate : 48.0 kHz Frame rate : 31.250 FPS (1536 SPF) Compression mode : Lossy Stream size : 38.5 MiB (5%) Language : Japanese Service kind : Complete Main Default : Yes Forced : No ```

File list