[MagicStar] Kanojo wa Kirei datta EP01 [WEBDL] [1080p] [AMZN]

Category:
Date:
2021-07-15 04:55 UTC
Submitter:
Seeders:
3
Information:
Leechers:
1
File size:
2.8 GiB
Completed:
401
Info hash:
4afddca1bb76f1633fb193a1fe4bd5c62270e59b
HD 1080p from Prime Video. ![alt text](https://i.ibb.co/NmrbGSx/SID0059193.png) ![alt text](https://i.ibb.co/dMnp13H/Kanojo-wa-Kirei-datta-EP01-1080p-AMZN-WEB-DL-DDP2-0-H-264-Magic-Star-mkv.jpg) ``` General Unique ID : 196086110298045602816301049939285097571 (0x9384CFA78925E8E845DE703512BDBC63) Complete name : Kanojo.wa.Kirei.datta.EP01.1080p.AMZN.WEB-DL.DDP2.0.H.264-MagicStar.mkv Format : Matroska Format version : Version 4 File size : 2.83 GiB Duration : 57 min 8 s Overall bit rate : 7 089 kb/s Encoded date : UTC 2021-07-15 03:28:12 Writing application : mkvmerge v50.0.0 ('Awakenings') 64-bit Writing library : libebml v1.4.0 + libmatroska v1.6.2 Video ID : 1 Format : AVC Format/Info : Advanced Video Codec Format profile : High@L4 Format settings : CABAC / 4 Ref Frames Format settings, CABAC : Yes Format settings, Reference fra : 4 frames Codec ID : V_MPEG4/ISO/AVC Duration : 57 min 8 s Bit rate : 6 862 kb/s Width : 1 920 pixels Height : 1 080 pixels Display aspect ratio : 16:9 Frame rate mode : Constant Frame rate : 29.970 (29970/1000) FPS Original frame rate : 29.970 (30000/1001) FPS Color space : YUV Chroma subsampling : 4:2:0 Bit depth : 8 bits Scan type : Progressive Bits/(Pixel*Frame) : 0.110 Stream size : 2.74 GiB (97%) Default : Yes Forced : No Color range : Limited Color primaries : BT.709 Transfer characteristics : BT.709 Matrix coefficients : BT.709 Audio ID : 2 Format : E-AC-3 Format/Info : Enhanced AC-3 Commercial name : Dolby Digital Plus Codec ID : A_EAC3 Duration : 57 min 8 s Bit rate mode : Constant Bit rate : 224 kb/s Channel(s) : 2 channels Channel layout : L R Sampling rate : 48.0 kHz Frame rate : 31.250 FPS (1536 SPF) Compression mode : Lossy Stream size : 91.6 MiB (3%) Language : Japanese Service kind : Complete Main Default : Yes Forced : No ```

File list