Bleach.2004.S06.CUSTOM.MULTi.1080p.BluRay.x265-SceneGuardians (VF/VOSTFR)

Category:
Date:
2021-07-13 11:38 UTC
Submitter:
Seeders:
4
Information:
Leechers:
1
File size:
5.3 GiB
Completed:
186
Info hash:
7193176ec2f97d95e3da83a0a4836a3e83aa2e8c
![alt text](https://cdn.myanimelist.net/images/anime/1957/107460l.webp) Source Video : [Judas] https://nyaa.si/view/1223561 (Merci) Source Audio FR : [Monkey D.Lulu] (Merci) Source Subs FR : [LIGHT] https://nyaa.si/view/1381402 (Merci) E110-131 PS : Audio et subs FR marche aussi avec les USBDs. General Unique ID : 89002113398656411038059437780514995530 (0x42F52EFBE03EA4530376CC57758D7D4A) Complete name : /data/incomplete/Bleach.2004.S06.CUSTOM.MULTi.1080p.BluRay.x265-SceneGuardians/Bleach.E110.CUSTOM.MULTi.1080p.BluRay.x265-SceneGuardians.mkv Format : Matroska Format version : Version 4 File size : 200 MiB Duration : 24 min 33 s Overall bit rate : 1 137 kb/s Encoded date : UTC 2021-07-13 11:20:11 Writing application : mkvmerge v58.0.0 ('Supper's Ready') 64-bit Writing library : libebml v1.4.2 + libmatroska v1.6.4 / Lavf58.29.100 Video ID : 1 Format : HEVC Format/Info : High Efficiency Video Coding Format profile : Main 10@L4@Main Codec ID : V_MPEGH/ISO/HEVC Duration : 24 min 32 s Bit rate : 822 kb/s Width : 1 440 pixels Height : 1 080 pixels Display aspect ratio : 4:3 Frame rate mode : Constant Frame rate : 23.976 (23976/1000) FPS Original frame rate : 23.976 (24000/1001) FPS Color space : YUV Chroma subsampling : 4:2:0 Bit depth : 10 bits Bits/(Pixel*Frame) : 0.022 Stream size : 144 MiB (72%) Writing library : x265 2.9:[Windows][GCC 8.2.0][64 bit] 10bit Encoding settings : cpuid=1111039 / frame-threads=3 / numa-pools=8 / wpp / no-pmode / no-pme / no-psnr / no-ssim / log-level=2 / input-csp=1 / input-res=1440x1080 / interlace=0 / total-frames=0 / level-idc=0 / high-tier=1 / uhd-bd=0 / ref=3 / no-allow-non-conformance / no-repeat-headers / annexb / no-aud / no-hrd / info / hash=0 / no-temporal-layers / open-gop / min-keyint=24 / keyint=240 / gop-lookahead=0 / bframes=4 / b-adapt=2 / b-pyramid / bframe-bias=0 / rc-lookahead=20 / lookahead-slices=6 / scenecut=40 / radl=0 / no-intra-refresh / ctu=64 / min-cu-size=8 / no-rect / no-amp / max-tu-size=32 / tu-inter-depth=1 / tu-intra-depth=1 / limit-tu=0 / rdoq-level=0 / dynamic-rd=0.00 / no-ssim-rd / signhide / no-tskip / nr-intra=0 / nr-inter=0 / no-constrained-intra / strong-intra-smoothing / max-merge=2 / limit-refs=3 / no-limit-modes / me=1 / subme=2 / merange=57 / temporal-mvp / weightp / no-weightb / no-analyze-src-pics / deblock=0:0 / sao / no-sao-non-deblock / rd=3 / no-early-skip / rskip / no-fast-intra / no-tskip-fast / no-cu-lossless / no-b-intra / no-splitrd-skip / rdpenalty=0 / psy-rd=2.00 / psy-rdoq=0.00 / no-rd-refine / no-lossless / cbqpoffs=0 / crqpoffs=0 / rc=crf / crf=24.5 / qcomp=0.60 / qpstep=4 / stats-write=0 / stats-read=0 / ipratio=1.40 / pbratio=1.30 / aq-mode=1 / aq-strength=1.00 / cutree / zone-count=0 / no-strict-cbr / qg-size=32 / no-rc-grain / qpmax=69 / qpmin=0 / no-const-vbv / sar=1 / overscan=0 / videoformat=5 / range=0 / colorprim=1 / transfer=1 / colormatrix=1 / chromaloc=0 / display-window=0 / max-cll=0,0 / min-luma=0 / max-luma=1023 / log2-max-poc-lsb=8 / vui-timing-info / vui-hrd-info / slices=1 / no-opt-qp-pps / no-opt-ref-list-length-pps / no-multi-pass-opt-rps / scenecut-bias=0.05 / no-opt-cu-delta-qp / no-aq-motion / no-hdr / no-hdr-opt / no-dhdr10-opt / no-idr-recovery-sei / analysis-reuse-level=5 / scale-factor=0 / refine-intra=0 / refine-inter=0 / refine-mv=0 / no-limit-sao / ctu-info=0 / no-lowpass-dct / refine-mv-type=0 / copy-pic=1 / max-ausize-factor=1.0 / no-dynamic-refine / no-single-sei Language : Japanese Default : Yes Forced : No Color range : Limited Color primaries : BT.709 Transfer characteristics : BT.709 Matrix coefficients : BT.709 Audio #1 ID : 2 Format : AC-3 Format/Info : Audio Coding 3 Commercial name : Dolby Digital Codec ID : A_AC3 Duration : 24 min 33 s Bit rate mode : Constant Bit rate : 224 kb/s Channel(s) : 2 channels Channel layout : L R Sampling rate : 44.1 kHz Frame rate : 28.711 FPS (1536 SPF) Compression mode : Lossy Delay relative to video : -7 ms Stream size : 39.3 MiB (20%) Title : French Language : French Service kind : Complete Main Default : Yes Forced : No Audio #2 ID : 3 Format : Opus Codec ID : A_OPUS Duration : 24 min 31 s Bit rate : 89.3 kb/s Channel(s) : 2 channels Channel layout : L R Sampling rate : 48.0 kHz Frame rate : 50.000 FPS (960 SPF) Compression mode : Lossy Delay relative to video : -7 ms Stream size : 15.7 MiB (8%) Language : Japanese Default : No Forced : No Text ID : 4 Format : UTF-8 Codec ID : S_TEXT/UTF8 Codec ID/Info : UTF-8 Plain Text Duration : 21 min 29 s Bit rate : 57 b/s Count of elements : 286 Stream size : 9.11 KiB (0%) Language : French Default : No Forced : No Menu 00:00:00.000 : :Chapter 1 00:01:40.767 : :Chapter 2 00:08:41.604 : :Chapter 3 00:22:00.486 : :Chapter 4 00:23:30.576 : :Chapter 5 PS2 : s’il vous plaît, pourriez-vous continuer à seeder pour que ce torrent puisse vivre. Merci. PS2: please, could you keep seeding in order for this torrent to live. Thank you.

File list

  • Bleach.2004.S06.CUSTOM.MULTi.1080p.BluRay.x265-SceneGuardians
    • Bleach.E110.CUSTOM.MULTi.1080p.BluRay.x265-SceneGuardians.mkv (199.7 MiB)
    • Bleach.E111.CUSTOM.MULTi.1080p.BluRay.x265-SceneGuardians.mkv (197.5 MiB)
    • Bleach.E112.CUSTOM.MULTi.1080p.BluRay.x265-SceneGuardians.mkv (300.4 MiB)
    • Bleach.E113.CUSTOM.MULTi.1080p.BluRay.x265-SceneGuardians.mkv (279.7 MiB)
    • Bleach.E114.CUSTOM.MULTi.1080p.BluRay.x265-SceneGuardians.mkv (274.3 MiB)
    • Bleach.E115.CUSTOM.MULTi.1080p.BluRay.x265-SceneGuardians.mkv (311.6 MiB)
    • Bleach.E116.CUSTOM.MULTi.1080p.BluRay.x265-SceneGuardians.mkv (272.1 MiB)
    • Bleach.E117.CUSTOM.MULTi.1080p.BluRay.x265-SceneGuardians.mkv (145.2 MiB)
    • Bleach.E118.CUSTOM.MULTi.1080p.BluRay.x265-SceneGuardians.mkv (155.5 MiB)
    • Bleach.E119.CUSTOM.MULTi.1080p.BluRay.x265-SceneGuardians.mkv (146.6 MiB)
    • Bleach.E120.CUSTOM.MULTi.1080p.BluRay.x265-SceneGuardians.mkv (235.8 MiB)
    • Bleach.E121.CUSTOM.MULTi.1080p.BluRay.x265-SceneGuardians.mkv (325.4 MiB)
    • Bleach.E122.CUSTOM.MULTi.1080p.BluRay.x265-SceneGuardians.mkv (276.4 MiB)
    • Bleach.E123.CUSTOM.MULTi.1080p.BluRay.x265-SceneGuardians.mkv (308.1 MiB)
    • Bleach.E124.CUSTOM.MULTi.1080p.BluRay.x265-SceneGuardians.mkv (337.6 MiB)
    • Bleach.E125.CUSTOM.MULTi.1080p.BluRay.x265-SceneGuardians.mkv (146.8 MiB)
    • Bleach.E126.CUSTOM.MULTi.1080p.BluRay.x265-SceneGuardians.mkv (288.7 MiB)
    • Bleach.E127.CUSTOM.MULTi.1080p.BluRay.x265-SceneGuardians.mkv (272.2 MiB)
    • Bleach.E128.CUSTOM.MULTi.1080p.BluRay.x265-SceneGuardians.mkv (313.9 MiB)
    • Bleach.E129.CUSTOM.MULTi.1080p.BluRay.x265-SceneGuardians.mkv (279.4 MiB)
    • Bleach.E130.CUSTOM.MULTi.1080p.BluRay.x265-SceneGuardians.mkv (147.4 MiB)
    • Bleach.E131.CUSTOM.MULTi.1080p.BluRay.x265-SceneGuardians.mkv (168.4 MiB)