RESIDENT.EVIL.Infinite.Darkness.2021.S01.MULTi.1080p.NF.WEBRip.DDP5.1.x265-SceneGuardians (VF/VOSTFR)

Category:
Date:
2021-07-08 13:57 UTC
Submitter:
Seeders:
3
Information:
Leechers:
0
File size:
2.4 GiB
Completed:
232
Info hash:
98232294f4e5d3765c5a5f6871f40a396903a0e6
![alt text](https://dyncdn.me/static/20/tvdb/352083_banner_optimized.jpg) Source Video : [PSA] (Merci) Source Audio et Subs FR : [KRP] https://nyaa.si/view/1406740 (Merci) General Unique ID : 130404553234971423932768653158904696386 (0x621B00DE8EDF91B1CF1AF7E3F96F0E42) Complete name : RESIDENT.EVIL.Infinite.Darkness.S01E01.MULTi.1080p.NF.WEBRip.DDP5.1.x265-SceneGuardians.mkv Format : Matroska Format version : Version 4 File size : 604 MiB Duration : 26 min 6 s Overall bit rate : 3 236 kb/s Encoded date : UTC 2021-07-08 13:40:55 Writing application : mkvmerge v58.0.0 ('Supper's Ready') 64-bit Writing library : libebml v1.4.2 + libmatroska v1.6.4 Video ID : 1 Format : HEVC Format/Info : High Efficiency Video Coding Format profile : Main 10@L4@Main Codec ID : V_MPEGH/ISO/HEVC Duration : 26 min 5 s Bit rate : 1 955 kb/s Width : 1 920 pixels Height : 1 040 pixels Display aspect ratio : 1.85:1 Frame rate mode : Constant Frame rate : 24.000 FPS Color space : YUV Chroma subsampling : 4:2:0 Bit depth : 10 bits Bits/(Pixel*Frame) : 0.041 Stream size : 365 MiB (60%) Default : Yes Forced : No Audio #1 ID : 2 Format : E-AC-3 Format/Info : Enhanced AC-3 Commercial name : Dolby Digital Plus Codec ID : A_EAC3 Duration : 26 min 6 s Bit rate mode : Constant Bit rate : 640 kb/s Channel(s) : 6 channels Channel layout : L R C LFE Ls Rs Sampling rate : 48.0 kHz Frame rate : 31.250 FPS (1536 SPF) Compression mode : Lossy Stream size : 120 MiB (20%) Title : French Language : French Service kind : Complete Main Default : No Forced : No Audio #2 ID : 3 Format : E-AC-3 Format/Info : Enhanced AC-3 Commercial name : Dolby Digital Plus Codec ID : A_EAC3 Duration : 26 min 6 s Bit rate mode : Constant Bit rate : 640 kb/s Channel(s) : 6 channels Channel layout : L R C LFE Ls Rs Sampling rate : 48.0 kHz Frame rate : 31.250 FPS (1536 SPF) Compression mode : Lossy Stream size : 120 MiB (20%) Title : Japanese Language : Japanese Service kind : Complete Main Default : No Forced : No Text #1 ID : 4 Format : UTF-8 Codec ID : S_TEXT/UTF8 Codec ID/Info : UTF-8 Plain Text Duration : 23 min 20 s Bit rate : 2 b/s Count of elements : 10 Stream size : 402 Bytes (0%) Title : Forced Language : French Default : Yes Forced : Yes Text #2 ID : 5 Format : UTF-8 Codec ID : S_TEXT/UTF8 Codec ID/Info : UTF-8 Plain Text Duration : 25 min 8 s Bit rate : 55 b/s Count of elements : 277 Stream size : 10.1 KiB (0%) Title : Full Language : French Default : No Forced : No PS : s’il vous plaît, pourriez-vous continuer à seeder pour que ce torrent puisse vivre. Merci. PS: please, could you keep seeding in order for this torrent to live. Thank you.

File list

  • RESIDENT.EVIL.Infinite.Darkness.2021.S01.MULTi.1080p.NF.WEBRip.DDP5.1.x265-SceneGuardians
    • RESIDENT.EVIL.Infinite.Darkness.S01E01.MULTi.1080p.NF.WEBRip.DDP5.1.x265-SceneGuardians.mkv (604.2 MiB)
    • RESIDENT.EVIL.Infinite.Darkness.S01E02.MULTi.1080p.NF.WEBRip.DDP5.1.x265-SceneGuardians.mkv (631.2 MiB)
    • RESIDENT.EVIL.Infinite.Darkness.S01E03.MULTi.1080p.NF.WEBRip.DDP5.1.x265-SceneGuardians.mkv (572.7 MiB)
    • RESIDENT.EVIL.Infinite.Darkness.S01E04.MULTi.1080p.NF.WEBRip.DDP5.1.x265-SceneGuardians.mkv (656.0 MiB)