[ADF] Love Live! Sunshine!! Aqours - DREAMY COLOR (BD 1920x1080 x264 10bit FLAC)

Category:
Date:
2021-07-05 17:19 UTC
Submitter:
Seeders:
2
Information:
Leechers:
0
File size:
4.3 GiB
Completed:
112
Info hash:
92915ca909220829046996a18d422e4655cb716c
Este es el primer video musical de Aqours protagonizado solo por las seiyuus de Love Live! Sunshine!!, ahora en su versión Blu-ray. Esta descarga incluye el MV principal, una versión del director, un detrás de escena de cómo se hizo el video y un video en donde muestran el baile en formato coreográfico. Video original: https://youtu.be/BlKZfUWN69M Video MKV BDrip resolución 1920x1080 (Full HD) 10 bit Audio FLAC ### Subtítulos softsub en español solo en el video principal y la versión del director. Si no los necesitas, puedes desactivarlos desde el reproductor. El detrás de escena y la coreografía NO incluyen subtítulos. ### Spanish softsub subtitles only on main video and director's cut. If you don't need them, you can disable them from the player. The behind the scenes and the choreography NOT include subtitles. ```General Unique ID : 324911302070175850245855282447531258202 (0xF46FA3FDE1C1DE61A2AA820D24AE315A) Complete name : E:\[ADF] Love Live! Sunshine!! Aqours - DREAMY COLOR (BD 1920x1080 x264 10bit FLAC)\[ADF] Love Live! Sunshine!! Aqours - DREAMY COLOR (BD 1920x1080 x264 10bit FLAC) (Spanish Sub).mkv Format : Matroska Format version : Version 4 File size : 625 MiB Duration : 5 min 4 s Overall bit rate mode : Variable Overall bit rate : 17.2 Mb/s Encoded date : UTC 2021-07-05 16:32:52 Writing application : mkvmerge v58.0.0 ('Supper's Ready') 64-bit Writing library : libebml v1.4.2 + libmatroska v1.6.4 Attachments : CandelaBold.otf Video ID : 1 Format : AVC Format/Info : Advanced Video Codec Format profile : High 10@L5 Format settings : CABAC / 5 Ref Frames Format settings, CABAC : Yes Format settings, Reference fra : 5 frames Codec ID : V_MPEG4/ISO/AVC Duration : 5 min 4 s Bit rate : 15.4 Mb/s Width : 1 920 pixels Height : 1 080 pixels Display aspect ratio : 16:9 Frame rate mode : Constant Frame rate : 23.976 (24000/1001) FPS Color space : YUV Chroma subsampling : 4:2:0 Bit depth : 10 bits Scan type : Progressive Bits/(Pixel*Frame) : 0.309 Stream size : 557 MiB (89%) Title : Video x264 AVC 10bit 1080p Writing library : x264 core 157 r2969 d4099dd Encoding settings : cabac=1 / ref=5 / deblock=1:-1:-1 / analyse=0x3:0x133 / me=umh / subme=10 / psy=1 / psy_rd=1.00:0.15 / mixed_ref=1 / me_range=32 / chroma_me=1 / trellis=2 / 8x8dct=1 / cqm=0 / deadzone=21,11 / fast_pskip=1 / chroma_qp_offset=-3 / threads=12 / lookahead_threads=2 / sliced_threads=0 / nr=0 / decimate=1 / interlaced=0 / bluray_compat=0 / constrained_intra=0 / bframes=8 / b_pyramid=2 / b_adapt=2 / b_bias=0 / direct=3 / weightb=1 / open_gop=0 / weightp=2 / keyint=240 / keyint_min=23 / scenecut=40 / intra_refresh=0 / rc_lookahead=60 / rc=crf / mbtree=1 / crf=15.0 / qcomp=0.60 / qpmin=0 / qpmax=81 / qpstep=4 / ip_ratio=1.40 / aq=1:1.00 Language : Japanese Default : Yes Forced : No Audio ID : 2 Format : FLAC Format/Info : Free Lossless Audio Codec Codec ID : A_FLAC Duration : 5 min 4 s Bit rate mode : Variable Bit rate : 1 877 kb/s Channel(s) : 2 channels Channel layout : L R Sampling rate : 48.0 kHz Frame rate : 11.722 FPS (4095 SPF) Bit depth : 24 bits Compression mode : Lossless Stream size : 68.1 MiB (11%) Title : Audio FLAC 2.0 Writing library : libFLAC 1.3.2 (UTC 2017-01-01) Language : Japanese Default : Yes Forced : No Text ID : 3 Format : ASS Codec ID : S_TEXT/ASS Codec ID/Info : Advanced Sub Station Alpha Duration : 4 min 47 s Bit rate : 482 b/s Count of elements : 107 Compression mode : Lossless Stream size : 16.9 KiB (0%) Title : Español latino + karaoke sin efectos Language : Spanish Default : Yes Forced : No ``` Para descarga directa, visita nuestro blog. Espero que lo disfruten. ¡Gracias! Ingresa a nuestros chats: Discord: https://discord.gg/EkcFw3k Telegram: https://t.me/AnimeDreamSubs Nuestras redes sociales: Facebook: https://www.facebook.com/AnimeDreamSubs Twitter: https://www.twitter.com/AnimeDreamSubs Instagram: https://www.instagram.com/animedreamsubs

File list

  • [ADF] Love Live! Sunshine!! Aqours - DREAMY COLOR (BD 1920x1080 x264 10bit FLAC)
    • [ADF] Love Live! Sunshine!! Aqours - DREAMY COLOR (BD 1920x1080 x264 10bit FLAC) (Spanish Sub).mkv (625.1 MiB)
    • [ADF] Love Live! Sunshine!! Aqours - DREAMY COLOR Dance Video (BD 1920x1080 x264 10bit FLAC).mkv (432.4 MiB)
    • [ADF] Love Live! Sunshine!! Aqours - DREAMY COLOR Director's Cut (BD 1920x1080 x264 10bit FLAC) (Spanish Sub).mkv (549.5 MiB)
    • [ADF] Love Live! Sunshine!! Aqours - Making Of DREAMY COLOR (BD 1920x1080 x264 10bit FLAC).mkv (2.7 GiB)