Fate/Grand.Order.Absolute.Demonic.Front.Babylonia.S01.P2.1080p.Blu-Ray.10-Bit.Dual-Audio.LPCM.x265-iAHD

Category:
Date:
2021-07-05 03:47 UTC
Submitter:
Seeders:
3
Information:
No information.
Leechers:
1
File size:
18.5 GiB
Completed:
274
Info hash:
1da5faa3a278195d224e24957a29dd7c193e30a3
NOTE: I add the “songs lyrics” to both Intro & Credits but keep everything else original, since the subtitles on the Blu-Ray’s didn’t come with the songs lyrics. Video ID : 1 Format : HEVC Format/Info : High Efficiency Video Coding Format profile : Main 10@L5@Main Codec ID : V_MPEGH/ISO/HEVC Duration : 23 min 42 s Bit rate : 6 110 kb/s Width : 1 920 pixels Height : 1 080 pixels Display aspect ratio : 16:9 Frame rate mode : Constant Frame rate : 23.976 (24000/1001) FPS Color space : YUV Chroma subsampling : 4:2:0 Bit depth : 10 bits Bits/(Pixel*Frame) : 0.123 Stream size : 1.01 GiB (56%) Writing library : x265 3.2.1+1-b5c86a64bbbe:[Windows][GCC 9.2.0][64 bit] 10bit Encoding settings : cpuid=1111039 / frame-threads=4 / numa-pools=16 / wpp / no-pmode / no-pme / no-psnr / no-ssim / log-level=2 / input-csp=1 / input-res=1920x1080 / interlace=0 / total-frames=0 / level-idc=0 / high-tier=1 / uhd-bd=0 / ref=6 / no-allow-non-conformance / no-repeat-headers / annexb / no-aud / no-hrd / info / hash=0 / no-temporal-layers / open-gop / min-keyint=24 / keyint=240 / gop-lookahead=0 / bframes=16 / b-adapt=2 / b-pyramid / bframe-bias=0 / rc-lookahead=50 / lookahead-slices=4 / scenecut=40 / radl=0 / no-splice / no-intra-refresh / ctu=32 / min-cu-size=8 / no-rect / no-amp / max-tu-size=32 / tu-inter-depth=1 / tu-intra-depth=3 / limit-tu=0 / rdoq-level=2 / dynamic-rd=0.00 / no-ssim-rd / signhide / tskip / nr-intra=0 / nr-inter=0 / no-constrained-intra / no-strong-intra-smoothing / max-merge=3 / limit-refs=3 / limit-modes / me=3 / subme=3 / merange=57 / temporal-mvp / no-hme / weightp / no-weightb / no-analyze-src-pics / deblock=1:1 / no-sao / no-sao-non-deblock / rd=4 / selective-sao=0 / no-early-skip / rskip / no-fast-intra / tskip-fast / no-cu-lossless / no-b-intra / no-splitrd-skip / rdpenalty=0 / psy-rd=0.80 / psy-rdoq=2.00 / no-rd-refine / no-lossless / cbqpoffs=0 / crqpoffs=0 / rc=crf / crf=16.0 / qcomp=0.60 / qpstep=4 / stats-write=0 / stats-read=0 / ipratio=1.40 / pbratio=1.30 / aq-mode=3 / aq-strength=1.25 / cutree / zone-count=0 / no-strict-cbr / qg-size=32 / no-rc-grain / qpmax=69 / qpmin=0 / no-const-vbv / sar=1 / overscan=0 / videoformat=5 / range=0 / colorprim=1 / transfer=1 / colormatrix=1 / chromaloc=0 / display-window=0 / cll=0,0 / min-luma=0 / max-luma=1023 / log2-max-poc-lsb=8 / vui-timing-info / vui-hrd-info / slices=1 / no-opt-qp-pps / no-opt-ref-list-length-pps / no-multi-pass-opt-rps / scenecut-bias=0.05 / no-opt-cu-delta-qp / no-aq-motion / no-hdr / no-hdr-opt / no-dhdr10-opt / no-idr-recovery-sei / analysis-reuse-level=5 / scale-factor=0 / refine-intra=0 / refine-inter=0 / refine-mv=1 / refine-ctu-distortion=0 / no-limit-sao / ctu-info=0 / no-lowpass-dct / refine-analysis-type=0 / copy-pic=1 / max-ausize-factor=1.0 / no-dynamic-refine / no-single-sei / no-hevc-aq / no-svt / no-field / qp-adaptation-range=1.00 Language : Japanese Default : Yes Forced : No Color range : Limited Color primaries : BT.709 Transfer characteristics : BT.709 Matrix coefficients : BT.709 Audio #1 ID : 2 Format : PCM Format settings : Little / Signed Codec ID : A_PCM/INT/LIT Duration : 23 min 42 s Bit rate mode : Constant Bit rate : 2 304 kb/s Channel(s) : 2 channels Sampling rate : 48.0 kHz Frame rate : 25.001 FPS (1920 SPF) Bit depth : 24 bits Stream size : 391 MiB (21%) Language : English Default : Yes Forced : No Audio #2 ID : 3 Format : PCM Format settings : Little / Signed Codec ID : A_PCM/INT/LIT Duration : 23 min 42 s Bit rate mode : Constant Bit rate : 2 304 kb/s Channel(s) : 2 channels Sampling rate : 48.0 kHz Frame rate : 25.001 FPS (1920 SPF) Bit depth : 24 bits Stream size : 391 MiB (21%) Language : Japanese Default : Yes Forced : No Text #1 ID : 4 Format : PGS Muxing mode : zlib Codec ID : S_HDMV/PGS Codec ID/Info : Picture based subtitle format used on BDs/HD-DVDs Duration : 22 min 12 s Bit rate : 91.3 kb/s Count of elements : 369 Stream size : 14.5 MiB (1%) Title : Signs / Songs Language : English Default : Yes Forced : No Text #2 ID : 5 Format : PGS Muxing mode : zlib Codec ID : S_HDMV/PGS Codec ID/Info : Picture based subtitle format used on BDs/HD-DVDs Duration : 23 min 34 s Bit rate : 351 kb/s Count of elements : 2558 Stream size : 59.2 MiB (3%) Title : Dialogue Language : English Default : No Forced : No Menu 00:00:00.000 : Chapter 01 00:01:12.990 : Chapter 02 00:02:43.038 : Chapter 03 00:05:09.893 : Chapter 04 00:07:55.392 : Chapter 05 00:10:43.184 : Chapter 06 00:13:16.838 : Chapter 07 00:16:18.728 : Chapter 08 00:18:33.195 : Chapter 09 00:22:11.497 : Chapter 10

File list

  • Fate.Grand.Order.S01.P2.1080p.Blu-Ray.10-Bit.Dual-Audio.LPCM.x265-iAHD
    • Fate.Grand.Order.S01E12.1080p.Blu-Ray.10-Bit.Dual-Audio.LPCM.x265-iAHD.mkv (1.8 GiB)
    • Fate.Grand.Order.S01E13.1080p.Blu-Ray.10-Bit.Dual-Audio.LPCM.x265-iAHD.mkv (1.6 GiB)
    • Fate.Grand.Order.S01E14.1080p.Blu-Ray.10-Bit.Dual-Audio.LPCM.x265-iAHD.mkv (1.9 GiB)
    • Fate.Grand.Order.S01E15.1080p.Blu-Ray.10-Bit.Dual-Audio.LPCM.x265-iAHD.mkv (2.0 GiB)
    • Fate.Grand.Order.S01E16.1080p.Blu-Ray.10-Bit.Dual-Audio.LPCM.x265-iAHD.mkv (2.0 GiB)
    • Fate.Grand.Order.S01E17.1080p.Blu-Ray.10-Bit.Dual-Audio.LPCM.x265-iAHD.mkv (1.9 GiB)
    • Fate.Grand.Order.S01E18.1080p.Blu-Ray.10-Bit.Dual-Audio.LPCM.x265-iAHD.mkv (1.9 GiB)
    • Fate.Grand.Order.S01E19.1080p.Blu-Ray.10-Bit.Dual-Audio.LPCM.x265-iAHD.mkv (2.0 GiB)
    • Fate.Grand.Order.S01E20.1080p.Blu-Ray.10-Bit.Dual-Audio.LPCM.x265-iAHD.mkv (2.1 GiB)
    • Fate.Grand.Order.S01E21.1080p.Blu-Ray.10-Bit.Dual-Audio.LPCM.x265-iAHD.mkv (1.4 GiB)
Sorry to ask here, but this is the most recent release so my chance of an answer will be more likely.... Will you be continuing Black Clover?
Awesome sauce. Another great release as usual iAHQ.