( Dragontime ) My Hero Academia S05E13 1080p WEB-DL AAC 2.0 H.264 DUAL AUDIO

Category:
Date:
2021-07-03 11:49 UTC
Submitter:
Seeders:
2
Information:
No information.
Leechers:
0
File size:
1.0 GiB
Completed:
408
Info hash:
18b18d98f617c7d5f64a4110af19cc30ad139d9d
Format : Matroska Format version : Version 4 / Version 2 File size : 1.01 GiB Duration : 23 min 58 s Overall bit rate : 6 007 kb/s Movie name : Watch My Hero Academia Season 5 Episode 101 Sub & Dub - Anime Simulcast - Funimation - 1920x1080 9664K Encoded date : UTC 2021-07-03 11:25:50 Writing application : mkvmerge v56.1.0 ('My Friend') 64-bit Writing library : libebml v1.4.2 + libmatroska v1.6.4 Video ID : 1 Format : AVC Format/Info : Advanced Video Codec Format profile : High@L4 Format settings, CABAC : Yes Format settings, ReFrames : 3 frames Codec ID : V_MPEG4/ISO/AVC Duration : 23 min 58 s Bit rate : 5 748 kb/s Width : 1 920 pixels Height : 1 080 pixels Display aspect ratio : 16:9 Frame rate mode : Constant Frame rate : 23.976 (24000/1001) FPS Color space : YUV Chroma subsampling : 4:2:0 Bit depth : 8 bits Scan type : Progressive Bits/(Pixel*Frame) : 0.116 Stream size : 986 MiB (96%) Language : English Default : No Forced : No Color range : Limited Matrix coefficients : BT.709 Audio #1 ID : 2 Format : AAC Format/Info : Advanced Audio Codec Format profile : LC Codec ID : A_AAC Duration : 23 min 58 s Bit rate : 128 kb/s Channel(s) : 2 channels Channel positions : Front: L R Sampling rate : 48.0 kHz Frame rate : 46.875 FPS (1024 spf) Compression mode : Lossy Delay relative to video : -43 ms Stream size : 22.0 MiB (2%) Language : English Default : Yes Forced : No Audio #2 ID : 3 Format : AAC Format/Info : Advanced Audio Codec Format profile : LC Codec ID : A_AAC Duration : 23 min 58 s Bit rate : 128 kb/s Channel(s) : 2 channels Channel positions : Front: L R Sampling rate : 48.0 kHz Frame rate : 46.875 FPS (1024 spf) Compression mode : Lossy Delay relative to video : -43 ms Stream size : 22.0 MiB (2%) Language : Japanese Default : No Forced : No

File list

  • My Hero Academia S05E13 Have a Merry Christmas!.mkv (1.0 GiB)