Mobile.Suit.Gundam.Hathaway.2021.MULTi.1080p.NF.WEB-DL.DDP5.1.x264-SceneGuardians (VF/VOSTFR)

Category:
Date:
2021-07-01 10:01 UTC
Submitter:
Seeders:
6
Information:
Leechers:
0
File size:
2.4 GiB
Completed:
215
Info hash:
1cedcb341a818e5328ecb936c7916a5f9a612721
![alt text](https://cdn.myanimelist.net/images/anime/1110/106664l.webp?_gl=1*8d9t79*_ga*MTI3NDUxODI5NS4xNjA3OTQxNjk2*_ga_26FEP9527K*MTYyNTEzMzM0Ni4xMDQuMS4xNjI1MTMzNDk5LjM4) Source : [KRP] https://nyaa.si/view/1404424 (Merci) General Unique ID : 97487605781361076794271998058157365020 (0x49576E0F1CBA56703624815548B8D71C) Complete name : Mobile.Suit.Gundam.Hathaway.2021.MULTi.1080p.NF.WEB-DL.DDP5.1.x264-SceneGuardians.mkv Format : Matroska Format version : Version 4 File size : 2.41 GiB Duration : 1 h 36 min Overall bit rate mode : Variable Overall bit rate : 3 581 kb/s Encoded date : UTC 2021-07-01 09:49:28 Writing application : mkvmerge v58.0.0 ('Supper's Ready') 64-bit Writing library : libebml v1.4.2 + libmatroska v1.6.4 Video ID : 1 Format : AVC Format/Info : Advanced Video Codec Format profile : Main@L4 Format settings : CABAC / 3 Ref Frames Format settings, CABAC : Yes Format settings, Reference frames : 3 frames Codec ID : V_MPEG4/ISO/AVC Duration : 1 h 36 min Bit rate mode : Variable Bit rate : 2 299 kb/s Nominal bit rate : 2 058 kb/s Maximum bit rate : 5 220 kb/s Width : 1 920 pixels Height : 1 080 pixels Display aspect ratio : 16:9 Frame rate mode : Constant Frame rate : 23.976 (24000/1001) FPS Color space : YUV Chroma subsampling : 4:2:0 Bit depth : 8 bits Scan type : Progressive Bits/(Pixel*Frame) : 0.046 Stream size : 1.55 GiB (64%) Writing library : x264 core 148 r2722 1b0121b Encoding settings : cabac=1 / ref=3 / deblock=1:0:0 / analyse=0x1:0x111 / me=umh / subme=10 / psy=1 / psy_rd=1.00:0.00 / mixed_ref=1 / me_range=24 / chroma_me=1 / trellis=2 / 8x8dct=0 / cqm=0 / deadzone=21,11 / fast_pskip=1 / chroma_qp_offset=-2 / threads=6 / lookahead_threads=1 / sliced_threads=0 / nr=0 / decimate=1 / interlaced=0 / bluray_compat=0 / stitchable=1 / constrained_intra=0 / bframes=2 / b_pyramid=0 / b_adapt=2 / b_bias=0 / direct=3 / weightb=1 / open_gop=0 / weightp=2 / keyint=250 / keyint_min=23 / scenecut=0 / intra_refresh=0 / rc_lookahead=48 / rc=2pass / mbtree=1 / bitrate=2058 / ratetol=1.0 / qcomp=0.50 / qpmin=6 / qpmax=51 / qpstep=4 / cplxblur=20.0 / qblur=0.5 / vbv_maxrate=5220 / vbv_bufsize=6960 / nal_hrd=vbr / filler=0 / ip_ratio=1.40 / aq=1:1.00 Default : Yes Forced : No Audio #1 ID : 2 Format : E-AC-3 Format/Info : Enhanced AC-3 Commercial name : Dolby Digital Plus Codec ID : A_EAC3 Duration : 1 h 36 min Bit rate mode : Constant Bit rate : 640 kb/s Channel(s) : 6 channels Channel layout : L R C LFE Ls Rs Sampling rate : 48.0 kHz Frame rate : 31.250 FPS (1536 SPF) Compression mode : Lossy Stream size : 441 MiB (18%) Title : French Language : French Service kind : Complete Main Default : Yes Forced : No Audio #2 ID : 3 Format : E-AC-3 Format/Info : Enhanced AC-3 Commercial name : Dolby Digital Plus Codec ID : A_EAC3 Duration : 1 h 36 min Bit rate mode : Constant Bit rate : 640 kb/s Channel(s) : 6 channels Channel layout : L R C LFE Ls Rs Sampling rate : 48.0 kHz Frame rate : 31.250 FPS (1536 SPF) Compression mode : Lossy Stream size : 441 MiB (18%) Title : Japanese Language : Japanese Service kind : Complete Main Default : No Forced : No Text #1 ID : 4 Format : UTF-8 Codec ID : S_TEXT/UTF8 Codec ID/Info : UTF-8 Plain Text Duration : 1 h 35 min Bit rate : 0 b/s Count of elements : 20 Stream size : 636 Bytes (0%) Title : French (Forced) Language : French Default : Yes Forced : Yes Text #2 ID : 5 Format : UTF-8 Codec ID : S_TEXT/UTF8 Codec ID/Info : UTF-8 Plain Text Duration : 1 h 35 min Bit rate : 54 b/s Count of elements : 1221 Stream size : 37.8 KiB (0%) Title : French Language : French Default : No Forced : No PS : s’il vous plaît, pourriez-vous continuer à seeder pour que ce torrent puisse vivre. Merci. PS: please, could you keep seeding in order for this torrent to live. Thank you.

File list

  • Mobile.Suit.Gundam.Hathaway.2021.MULTi.1080p.NF.WEB-DL.DDP5.1.x264-SceneGuardians.mkv (2.4 GiB)