( Dragontime ) My Hero Academia S05E12 1080p WEB-DL AAC 2.0 H.264 DUAL AUDIO

Category:
Date:
2021-06-26 10:52 UTC
Submitter:
Seeders:
1
Information:
No information.
Leechers:
0
File size:
978.0 MiB
Completed:
389
Info hash:
495f785fcbbd224fb819ae8e3f3ff7ed2a733bf7
Format : Matroska Format version : Version 4 / Version 2 File size : 978 MiB Duration : 23 min 58 s Overall bit rate : 5 703 kb/s Movie name : Watch My Hero Academia Season 5 Episode 100 Sub & Dub - Anime Simulcast - Funimation - 1920x1080 8141K Encoded date : UTC 2021-06-26 10:27:25 Writing application : mkvmerge v56.1.0 ('My Friend') 64-bit Writing library : libebml v1.4.2 + libmatroska v1.6.4 Cover : Yes Attachments : cover.png Video ID : 1 Format : AVC Format/Info : Advanced Video Codec Format profile : Main@L4 Format settings, CABAC : Yes Format settings, ReFrames : 4 frames Codec ID : V_MPEG4/ISO/AVC Duration : 23 min 58 s Bit rate : 5 432 kb/s Width : 1 920 pixels Height : 1 080 pixels Display aspect ratio : 16:9 Frame rate mode : Constant Frame rate : 23.976 (24000/1001) FPS Color space : YUV Chroma subsampling : 4:2:0 Bit depth : 8 bits Scan type : Progressive Bits/(Pixel*Frame) : 0.109 Stream size : 932 MiB (95%) Language : English Default : No Forced : No Color range : Limited Matrix coefficients : BT.709 Audio #1 ID : 2 Format : AAC Format/Info : Advanced Audio Codec Format profile : LC Codec ID : A_AAC Duration : 23 min 58 s Bit rate : 128 kb/s Channel(s) : 2 channels Channel positions : Front: L R Sampling rate : 48.0 kHz Frame rate : 46.875 FPS (1024 spf) Compression mode : Lossy Delay relative to video : -43 ms Stream size : 22.0 MiB (2%) Language : English Default : Yes Forced : No Audio #2 ID : 3 Format : AAC Format/Info : Advanced Audio Codec Format profile : LC Codec ID : A_AAC Duration : 23 min 58 s Bit rate : 128 kb/s Channel(s) : 2 channels Channel positions : Front: L R Sampling rate : 48.0 kHz Frame rate : 46.875 FPS (1024 spf) Compression mode : Lossy Delay relative to video : -43 ms Stream size : 22.0 MiB (2%) Language : Japanese Default : No Forced : No

File list

  • My Hero Academia S05E12 The New Power and All For One.mkv (978.0 MiB)