[neoHEVC] That Time I Got Reincarnated as a Slime [Season 2 + Season 1 Recap E24.9] [BD 1080p x265 HEVC AAC] [Dual Audio] Tensei shitara Slime Datta Ken

Category:
Date:
2021-06-22 20:14 UTC
Submitter:
Seeders:
17
Information:
Leechers:
2
File size:
5.1 GiB
Completed:
345
Info hash:
83460f60e39ff0269b8d90e10a7d83c837a1ec74
![](https://i.imgur.com/RBlGp48.png) *Join **[Discord](https://discord.gg/KYKYZUh)** for Current Projects, Encode-Requests and Seed-Request in case of no available seeds.* **That Time I Got Reincarnated as a Slime / Tensei shitara Slime Datta Ken [Season 2]** *Including [Season 1] Recap E24.9: Digression: Hinata Sakaguchi* *with `Dual Audio (Jpn/Eng)` and `Eng Subs` in `BD 1080p HEVC`* Reencode of [ReinForce] (x264 AVC FLAC) to (x265 HEVC AAC) with added English audio tracks from [Golumpa] and English subtitles from [Asakura]. *Recap: Base subtitles [PuyaSubs!]. Styling adjusted to match [Asakura] season 2. Created signs typesetting to match [Asakura] season 2. Inserted [Asakura] season 1 OP/ED. Created chapters.* *Season: Created [Signs & Songs] tracks.* ![](https://i.imgur.com/4iegWLL.png) **[Trailer](https://www.youtube.com/watch?v=nle-73CcG1k)** ![](https://i.imgur.com/3UxGuWB.png) ![](https://i.imgur.com/ZCtSawZ.png) **[Season 1 Recap E24.9](https://myanimelist.net/anime/45753/Tensei_shitara_Slime_Datta_Ken__Kanwa_-_Hinata_Sakaguchi)** ![](https://i.imgur.com/3UxGuWB.png) ![](https://i.imgur.com/ZCtSawZ.png) **[Season 2](https://myanimelist.net/anime/39551/Tensei_shitara_Slime_Datta_Ken_2nd_Season)** --- **Related Releases:** ▶️ [Season 1 OAD + Summary E24.5](https://nyaa.si/view/1302279) --- **Synopsis** Champion of monsters Rimuru Tempest ends the orc war and earns the esteemed title as Slime Chancellor. Now that the Jura Tempest Alliance is growing even further, they will now be meeting the animal kingdom of Eurazania, reuniting with King Gazel, rising tensions between monsters and humans, and Rimuru encountering the strongest enemy he's ever faced. ![](https://i.imgur.com/v0VpW7J.png) --- **Language Options** I included two simple scripts that you can apply to these files to do the following (Windows only): 1. Change [Default Tracks]: Switches default tracks to *A:Japanese S:Dialog* 2. Make [Single Audio]: Throws out *English audio* and *Signs&Songs subtitles* tracks To apply these put all the video files into the *Language Options* folder and run the .bat file. <1> Changes existing files, <2> creates new ones in the *output* folder. --- **Comparison** *Open links, toggle with mouseclick and check title.* [![](https://i.imgur.com/IqKwNlR.png)](https://slow.pics/c/McIDOj5G) [![](https://i.imgur.com/wVs5SAZ.png)](https://slow.pics/c/oNUKqtij) [![](https://i.imgur.com/CotBkv1.png)](https://slow.pics/c/XBhc35T3) --- **Source** ?️ Video and JPN Audio: **[[ReinForce]](https://nyaa.si/view/1365882)** ?️ Season: ENG Audio: **[[Golumpa]](https://nyaa.si/view/1343974)** ?️ Season: Subtitles: **[[Asakura]](https://nyaa.si/view/1370372)** ?️ Recap: ENG Audio: **[[Golumpa]](https://nyaa.si/view/1340381)** ?️ Recap: Subtitles Dialog: **[[PuyaSubs!]](https://nyaa.si/view/1325266)** ?️ Recap: Subtitles OPED: **[[Asakura]](https://nyaa.si/view/1315367)** ? *Subtitles Info: [Asakura] - Format `ASS`* --- **Media Info** ? [Full Mediainfo incl. Encoder Settings](https://pastebin.com/ahyajAGX) ``` General Unique ID : 30830041850090675818140143002059674618 (0x1731A66B8CC17BDCE4389CAD66EE13FA) Complete name : That Time I Got Reincarnated as a Slime - S02E01.mkv Format : Matroska Format version : Version 4 File size : 447 MiB Duration : 23 min 43 s Overall bit rate : 2 636 kb/s Movie name : That Time I Got Reincarnated as a Slime - S02E01 Encoded date : UTC 2021-05-30 09:23:17 Writing application : mkvmerge v47.0.0 ('Black Flag') 64-bit Writing library : libebml v1.3.10 + libmatroska v1.5.2 / Lavf58.29.100 Attachments : FOT-TelopMinPro-D.otf / CerigoStd-Medium.otf / Dimbo Regular.ttf / Gandhisans-Bold.otf / Gandhisans-Bolditalic.otf / Joyful Juliana.ttf / Linbiolinum_Rb.ttf / NotJustGroovy-enmp.ttf Video ID : 1 Format : HEVC Format/Info : High Efficiency Video Coding Format profile : Main 10@L4.1@High Codec ID : V_MPEGH/ISO/HEVC Duration : 23 min 43 s Bit rate : 2 179 kb/s Width : 1 920 pixels Height : 1 080 pixels Display aspect ratio : 16:9 Frame rate mode : Constant Frame rate : 23.976 (24000/1001) FPS Color space : YUV Chroma subsampling : 4:2:0 Bit depth : 10 bits Bits/(Pixel*Frame) : 0.044 Stream size : 370 MiB (83%) Writing library : x265 3.2.1+1-b5c86a64bbbe:[Windows][GCC 9.2.0][64 bit] 10bit Encoding settings : <Check Link Above> Default : Yes Forced : No Color range : Limited Color primaries : BT.709 Transfer characteristics : BT.709 Matrix coefficients : BT.709 Audio #1 ID : 2 Format : AAC LC Format/Info : Advanced Audio Codec Low Complexity Codec ID : A_AAC-2 Duration : 23 min 42 s Bit rate : 253 kb/s Channel(s) : 2 channels Channel layout : L R Sampling rate : 48.0 kHz Frame rate : 46.875 FPS (1024 SPF) Compression mode : Lossy Delay relative to video : 16 ms Stream size : 43.0 MiB (10%) Title : Stereo - ENG (AAC) Language : English Default : Yes Forced : No Audio #2 ID : 3 Format : AAC LC Format/Info : Advanced Audio Codec Low Complexity Codec ID : A_AAC-2 Duration : 23 min 43 s Bit rate : 123 kb/s Channel(s) : 2 channels Channel layout : L R Sampling rate : 48.0 kHz Frame rate : 46.875 FPS (1024 SPF) Compression mode : Lossy Stream size : 20.8 MiB (5%) Title : Stereo - JPN (AAC) Language : Japanese Default : No Forced : No Text #1 ID : 4 Format : ASS Codec ID : S_TEXT/ASS Codec ID/Info : Advanced Sub Station Alpha Duration : 18 min 54 s Bit rate : 17.6 kb/s Count of elements : 3787 Compression mode : Lossless Stream size : 2.38 MiB (1%) Title : Signs & Songs - ENG (ASS) Language : English Default : Yes Forced : No Text #2 ID : 5 Format : ASS Codec ID : S_TEXT/ASS Codec ID/Info : Advanced Sub Station Alpha Duration : 23 min 36 s Bit rate : 14.2 kb/s Count of elements : 4106 Compression mode : Lossless Stream size : 2.40 MiB (1%) Title : Dialog - ENG (ASS) Language : English Default : No Forced : No Menu 00:00:00.000 : Intro 00:04:35.000 : OP 00:06:04.920 : Part A 00:14:41.980 : Part B 00:22:05.970 : ED 00:23:35.970 : Next Episode ```

File list

  • [neoHEVC] That Time I Got Reincarnated as a Slime [Season 2 + Season 1 Recap E24.9] [BD 1080p x265 HEVC AAC] [Dual Audio]
    • Language Options
      • 1. Change [Default Tracks].bat (283 Bytes)
      • 2. Make [Single Audio] Japanese.bat (124 Bytes)
      • mkvmerge.exe (9.6 MiB)
      • mkvpropedit.exe (5.1 MiB)
      • readme.txt (486 Bytes)
    • Season 2
      • That Time I Got Reincarnated as a Slime - S02E01.mkv (447.2 MiB)
      • That Time I Got Reincarnated as a Slime - S02E02.mkv (368.4 MiB)
      • That Time I Got Reincarnated as a Slime - S02E03.mkv (322.1 MiB)
      • That Time I Got Reincarnated as a Slime - S02E04.mkv (264.6 MiB)
      • That Time I Got Reincarnated as a Slime - S02E05.mkv (318.1 MiB)
      • That Time I Got Reincarnated as a Slime - S02E06.mkv (416.3 MiB)
      • That Time I Got Reincarnated as a Slime - S02E07.mkv (411.3 MiB)
      • That Time I Got Reincarnated as a Slime - S02E08.mkv (341.5 MiB)
      • That Time I Got Reincarnated as a Slime - S02E09.mkv (354.9 MiB)
      • That Time I Got Reincarnated as a Slime - S02E10.mkv (422.6 MiB)
      • That Time I Got Reincarnated as a Slime - S02E11.mkv (579.1 MiB)
      • That Time I Got Reincarnated as a Slime - S02E12.mkv (548.7 MiB)
    • Specials
      • That Time I Got Reincarnated as a Slime - S00E07 - (S1 Recap E24.9).mkv (388.5 MiB)
Thanks for yet another great release! :D
@neoborn Wow, I thought my descriptions were good but yours are godly!

neoborn (uploader)

User
To be honest, I just create uploads to have more descriptions these days. Got a couple big ones waiting for their moment to shine, too :)
NCOP and NCED??
Thanks. Great show as always
Any plan to do season 1 as well?

neoborn (uploader)

User
**@Xonline** I think i have either **[this](https://nyaa.si/view/1232214)** or **[this](https://nyaa.si/view/1317745)**. Not doing my own version of this since I got it already :S
**@neoborn** both not using the newer version of the sub sadly
Do you have NCED from episode 11?
Kimi wa kanata English sub please🙏