Angels.of.Death.S01.1080p.Blu-Ray.10-Bit.Dual-Audio.TrueHD.x265-iAHD

Category:
Date:
2021-06-15 00:07 UTC
Submitter:
Seeders:
4
Information:
No information.
Leechers:
2
File size:
28.6 GiB
Completed:
803
Info hash:
ffacd4b6a3cada45123d5a58ae5cf7ef530d44a2
Video ID : 1 Format : HEVC Format/Info : High Efficiency Video Coding Format profile : Main 10@L5@Main Codec ID : V_MPEGH/ISO/HEVC Duration : 23 min 42 s Bit rate : 7 374 kb/s Width : 1 920 pixels Height : 1 080 pixels Display aspect ratio : 16:9 Frame rate mode : Constant Frame rate : 23.976 (24000/1001) FPS Color space : YUV Chroma subsampling : 4:2:0 Bit depth : 10 bits Bits/(Pixel*Frame) : 0.148 Stream size : 1.22 GiB (67%) Writing library : x265 3.2.1+1-b5c86a64bbbe:[Windows][GCC 9.2.0][64 bit] 10bit Encoding settings : cpuid=1111039 / frame-threads=4 / numa-pools=16 / wpp / no-pmode / no-pme / no-psnr / no-ssim / log-level=2 / input-csp=1 / input-res=1920x1080 / interlace=0 / total-frames=0 / level-idc=0 / high-tier=1 / uhd-bd=0 / ref=6 / no-allow-non-conformance / no-repeat-headers / annexb / no-aud / no-hrd / info / hash=0 / no-temporal-layers / open-gop / min-keyint=24 / keyint=240 / gop-lookahead=0 / bframes=16 / b-adapt=2 / b-pyramid / bframe-bias=0 / rc-lookahead=50 / lookahead-slices=4 / scenecut=40 / radl=0 / no-splice / no-intra-refresh / ctu=32 / min-cu-size=8 / no-rect / no-amp / max-tu-size=32 / tu-inter-depth=1 / tu-intra-depth=3 / limit-tu=0 / rdoq-level=2 / dynamic-rd=0.00 / no-ssim-rd / signhide / tskip / nr-intra=0 / nr-inter=0 / no-constrained-intra / no-strong-intra-smoothing / max-merge=3 / limit-refs=3 / limit-modes / me=3 / subme=3 / merange=57 / temporal-mvp / no-hme / weightp / no-weightb / no-analyze-src-pics / deblock=1:1 / no-sao / no-sao-non-deblock / rd=4 / selective-sao=0 / no-early-skip / rskip / no-fast-intra / tskip-fast / no-cu-lossless / no-b-intra / no-splitrd-skip / rdpenalty=0 / psy-rd=0.80 / psy-rdoq=2.00 / no-rd-refine / no-lossless / cbqpoffs=0 / crqpoffs=0 / rc=crf / crf=16.0 / qcomp=0.60 / qpstep=4 / stats-write=0 / stats-read=0 / ipratio=1.40 / pbratio=1.30 / aq-mode=3 / aq-strength=1.25 / cutree / zone-count=0 / no-strict-cbr / qg-size=32 / no-rc-grain / qpmax=69 / qpmin=0 / no-const-vbv / sar=1 / overscan=0 / videoformat=5 / range=0 / colorprim=1 / transfer=1 / colormatrix=1 / chromaloc=0 / display-window=0 / cll=0,0 / min-luma=0 / max-luma=1023 / log2-max-poc-lsb=8 / vui-timing-info / vui-hrd-info / slices=1 / no-opt-qp-pps / no-opt-ref-list-length-pps / no-multi-pass-opt-rps / scenecut-bias=0.05 / no-opt-cu-delta-qp / no-aq-motion / no-hdr / no-hdr-opt / no-dhdr10-opt / no-idr-recovery-sei / analysis-reuse-level=5 / scale-factor=0 / refine-intra=0 / refine-inter=0 / refine-mv=1 / refine-ctu-distortion=0 / no-limit-sao / ctu-info=0 / no-lowpass-dct / refine-analysis-type=0 / copy-pic=1 / max-ausize-factor=1.0 / no-dynamic-refine / no-single-sei / no-hevc-aq / no-svt / no-field / qp-adaptation-range=1.00 Language : English Default : Yes Forced : No Color range : Limited Color primaries : BT.709 Transfer characteristics : BT.709 Matrix coefficients : BT.709 Audio #1 ID : 2 Format : MLP FBA Format/Info : Meridian Lossless Packing FBA Commercial name : Dolby TrueHD Codec ID : A_TRUEHD Duration : 23 min 42 s Bit rate mode : Variable Bit rate : 1 432 kb/s Maximum bit rate : 2 754 kb/s Channel(s) : 6 channels Channel layout : L R C LFE Ls Rs Sampling rate : 48.0 kHz Frame rate : 1 200.000 FPS (40 SPF) Compression mode : Lossless Stream size : 243 MiB (13%) Language : English Default : Yes Forced : No Audio #2 ID : 3 Format : MLP FBA Format/Info : Meridian Lossless Packing FBA Commercial name : Dolby TrueHD Codec ID : A_TRUEHD Duration : 23 min 42 s Bit rate mode : Variable Bit rate : 1 097 kb/s Maximum bit rate : 1 665 kb/s Channel(s) : 2 channels Channel layout : L R Sampling rate : 48.0 kHz Frame rate : 1 200.000 FPS (40 SPF) Compression mode : Lossless Stream size : 186 MiB (10%) Language : Japanese Default : Yes Forced : No Audio #3 ID : 4 Format : MLP FBA Format/Info : Meridian Lossless Packing FBA Commercial name : Dolby TrueHD Codec ID : A_TRUEHD Duration : 23 min 42 s Bit rate mode : Variable Bit rate : 850 kb/s Maximum bit rate : 1 134 kb/s Channel(s) : 2 channels Channel layout : L R Sampling rate : 48.0 kHz Frame rate : 1 200.000 FPS (40 SPF) Compression mode : Lossless Stream size : 144 MiB (8%) Language : English Default : Yes Forced : No Text #1 ID : 5 Format : PGS Muxing mode : zlib Codec ID : S_HDMV/PGS Codec ID/Info : Picture based subtitle format used on BDs/HD-DVDs Duration : 18 min 35 s Bit rate : 2 670 b/s Count of elements : 30 Stream size : 364 KiB (0%) Title : Signs / Songs Language : English Default : Yes Forced : No Text #2 ID : 6 Format : PGS Muxing mode : zlib Codec ID : S_HDMV/PGS Codec ID/Info : Picture based subtitle format used on BDs/HD-DVDs Duration : 23 min 6 s Bit rate : 28.5 kb/s Count of elements : 548 Stream size : 4.71 MiB (0%) Title : Dialogue Language : English Default : No Forced : No Menu 00:00:00.000 : Chapter 01 00:03:53.108 : Chapter 02 00:11:06.541 : Chapter 03 00:22:06.826 : Chapter 04 00:23:36.665 : Chapter 05

File list

  • Angels.of.Death.S01.1080p.Blu-Ray.10-Bit.Dual-Audio.TrueHD.x265-iAHD
    • Angels.of.Death.S01E01.1080p.Blu-Ray.10-Bit.Dual-Audio.TrueHD.x265-iAHD.mkv (1.8 GiB)
    • Angels.of.Death.S01E02.1080p.Blu-Ray.10-Bit.Dual-Audio.TrueHD.x265-iAHD.mkv (1.9 GiB)
    • Angels.of.Death.S01E03.1080p.Blu-Ray.10-Bit.Dual-Audio.TrueHD.x265-iAHD.mkv (1.8 GiB)
    • Angels.of.Death.S01E04.1080p.Blu-Ray.10-Bit.Dual-Audio.TrueHD.x265-iAHD.mkv (1.8 GiB)
    • Angels.of.Death.S01E05.1080p.Blu-Ray.10-Bit.Dual-Audio.TrueHD.x265-iAHD.mkv (1.8 GiB)
    • Angels.of.Death.S01E06.1080p.Blu-Ray.10-Bit.Dual-Audio.TrueHD.x265-iAHD.mkv (2.0 GiB)
    • Angels.of.Death.S01E07.1080p.Blu-Ray.10-Bit.Dual-Audio.TrueHD.x265-iAHD.mkv (1.7 GiB)
    • Angels.of.Death.S01E08.1080p.Blu-Ray.10-Bit.Dual-Audio.TrueHD.x265-iAHD.mkv (1.9 GiB)
    • Angels.of.Death.S01E09.1080p.Blu-Ray.10-Bit.Dual-Audio.TrueHD.x265-iAHD.mkv (1.7 GiB)
    • Angels.of.Death.S01E10.1080p.Blu-Ray.10-Bit.Dual-Audio.TrueHD.x265-iAHD.mkv (1.7 GiB)
    • Angels.of.Death.S01E11.1080p.Blu-Ray.10-Bit.Dual-Audio.TrueHD.x265-iAHD.mkv (1.8 GiB)
    • Angels.of.Death.S01E12.1080p.Blu-Ray.10-Bit.Dual-Audio.TrueHD.x265-iAHD.mkv (1.7 GiB)
    • Angels.of.Death.S01E13.1080p.Blu-Ray.10-Bit.Dual-Audio.TrueHD.x265-iAHD.mkv (1.7 GiB)
    • Angels.of.Death.S01E14.1080p.Blu-Ray.10-Bit.Dual-Audio.TrueHD.x265-iAHD.mkv (1.6 GiB)
    • Angels.of.Death.S01E15.1080p.Blu-Ray.10-Bit.Dual-Audio.TrueHD.x265-iAHD.mkv (1.8 GiB)
    • Angels.of.Death.S01E16.1080p.Blu-Ray.10-Bit.Dual-Audio.TrueHD.x265-iAHD.mkv (2.0 GiB)
Waiting for Fate/Grand.Order.Babylonia.P2
Konosuba S2 ?
Thank you very much! Can you please seed Hunter.x.Hunter.Phantom.Rouge.2013.1080p.Blu-Ray.10-Bit.Dual-Audio.DTS-HD.x265-iAHD?
Appreciate it like always, thanks! Still looking forward to Black Clover which has been a few months since releasing. Would be great to finally finish up to 128~.
Ive uploaded a lot of IAHQ releases to Google Drive for prosperity and for people who need them pesky ones that aren't seeded. Note that extras, OVA and .5 episodes have been moved into the OVA folders of their respective seasons. Movies are here: https://drive.google.com/folderview?id=1laFXSXru1RtMj029iRxxn-Kr4YFJ3DUc Series are here: https://drive.google.com/folderview?id=19BzwPWw9YOQ9CVVmQe6ixGgY7FCnr5Gl If the movie or series you're looking for isn't there I'm uploading the rest to a separate drive so will be added soon. Enjoy everyone ;) @drifter7 Phantom Rouge is there :)
Links are now updated so they no longer require permission to view. Have at it folks :) If any of the files have issues let me know and I'll fix them ASAP.
@PS4Trophies Thanks pal. It's always good to have a backup of the best anime encodes out there.
No worries, I'm just happy to do something for the iAHQ community. I only pay for 2x2TB drives so whilst I'm moving stuff around between drives things will appear and disappear at random but don't worry normal operation will resume ☺️ I looked at the 10TB option and I'm thinking about it but 4TB will do for now I think ? The only iAHQ release I'm missing is the delusions movie and some of the x264 releases. I tried sourcing the movie but it's stuck at 3% ?
Due to the new Chinese crypto currency which is based on disk space, HDD prices have skyrocketed. Before Black Friday there's no chance to get reasonable prices. We might have to wait even longer. Do you mean the "Take Me On" one? According to nyaa, there's one seeder. Or is that you? ?
If I was wouldn't that mean I already had it so wouldn't be trying to get it?☺️
Now, there're only three leechers without any seeder. If iAHQ hasn't time or the resources to re-seed it, I can get it for you and then seed. But first let's see what the big boss does ;)
@lalalala697 Sounds great thanks. I'll upload it once I have it. Been stuck at 3% for weeks now :(
You the boss uploading now :)