[KayRips] Men on a Mission (2015) Episode 283 [1080p][WEB-DL x264][Eng-Subs]

Category:
Date:
2021-06-11 08:26 UTC
Submitter:
Seeders:
1
Information:
Leechers:
0
File size:
2.8 GiB
Completed:
14
Info hash:
214b10ab989b76ab07e626a7bf7eae8397243ade
DDL on discord https://discord.gg/whtT7vqfKB **Title :** Knowing Bros / 아는형님 / Knowing Brothers / Men On A Mission / Ask Us Anything **Episode :** 283 / S2021E22 **Country :** South Korea **Genre :** Korean Talk Show **Duration :** 1 h 40 min 33 sec ``` Video ID : 1 Format : AVC Format/Info : Advanced Video Codec Format profile : High@L4.1 Format settings : CABAC / 4 Ref Frames Format settings, CABAC : Yes Format settings, Reference frames : 4 frames Codec ID : V_MPEG4/ISO/AVC Duration : 1 h 40 min Bit rate mode : Variable Bit rate : 3 894 kb/s Maximum bit rate : 4 500 kb/s Width : 1 920 pixels Height : 1 080 pixels Display aspect ratio : 16:9 Frame rate mode : Constant Frame rate : 29.970 (30000/1001) FPS Original frame rate : 29.970 (29970/1000) FPS Color space : YUV Chroma subsampling : 4:2:0 Bit depth : 8 bits Scan type : Progressive Bits/(Pixel*Frame) : 0.063 Stream size : 2.73 GiB (98%) Title : [KayRips] Writing library : VOLO1.4.1 Default : Yes Forced : No Audio ID : 2 Format : AAC LC Format/Info : Advanced Audio Codec Low Complexity Codec ID : A_AAC-2 Duration : 1 h 40 min Bit rate : 96.0 kb/s Channel(s) : 2 channels Channel layout : L R Sampling rate : 48.0 kHz Frame rate : 46.875 FPS (1024 SPF) Compression mode : Lossy Delay relative to video : -42 ms Stream size : 69.0 MiB (2%) Language : Korean Default : Yes Forced : No ``` ![alt text](https://i.ibb.co/dDwMs3F/Kay-Rips-Men-on-a-Mission-2015-S2021-E22-283-mkv-20210611-143159-304.png)

File list

  • [KayRips] Men on a Mission (2015) - S2021E22 (283).mkv (2.8 GiB)