Neon Genesis Evangelion Platinum Complete

Category:
Date:
2021-06-08 23:14 UTC
Submitter:
Seeders:
5
Information:
No information.
Leechers:
0
File size:
37.8 GiB
Completed:
143
Info hash:
30cbf9645e9392f41728e5da8b3754bcec434216
![alt text](https://i.imgur.com/twvSE4U.jpeg "Front of the Boxset") Mediainfo for 1st episode: ```python s = "General Complete name : D:\VIDEO_TS\VTS_02_1.VOB Format : MPEG-PS File size : 1 024 MiB Duration : 20 min 21 s Overall bit rate mode : Variable Overall bit rate : 7 030 kb/s Video ID : 224 (0xE0) Format : MPEG Video Format version : Version 2 Format profile : Main@Main Format settings : CustomMatrix / BVOP Format settings, BVOP : Yes Format settings, Matrix : Custom Format settings, GOP : M=3, N=12 Format settings, picture structure : Frame Duration : 20 min 21 s Bit rate mode : Variable Bit rate : 5 995 kb/s Maximum bit rate : 8 900 kb/s Width : 720 pixels Height : 480 pixels Display aspect ratio : 4:3 Frame rate : 29.970 (30000/1001) FPS Standard : NTSC Color space : YUV Chroma subsampling : 4:2:0 Bit depth : 8 bits Scan type : Interlaced Scan order : Top Field First Compression mode : Lossy Bits/(Pixel*Frame) : 0.579 Time code of first frame : 01:00:19:28 Time code source : Group of pictures header GOP, Open/Closed : Closed Stream size : 873 MiB (85%) Audio #1 ID : 189 (0xBD)-128 (0x80) Format : AC-3 Format/Info : Audio Coding 3 Commercial name : Dolby Digital Muxing mode : DVD-Video Duration : 20 min 21 s Bit rate mode : Constant Bit rate : 448 kb/s Channel(s) : 6 channels Channel layout : L R C LFE Ls Rs Sampling rate : 48.0 kHz Frame rate : 31.250 FPS (1536 SPF) Compression mode : Lossy Stream size : 65.2 MiB (6%) Service kind : Complete Main Audio #2 ID : 189 (0xBD)-129 (0x81) Format : AC-3 Format/Info : Audio Coding 3 Commercial name : Dolby Digital Muxing mode : DVD-Video Duration : 20 min 21 s Bit rate mode : Constant Bit rate : 448 kb/s Channel(s) : 6 channels Channel layout : L R C LFE Ls Rs Sampling rate : 48.0 kHz Frame rate : 31.250 FPS (1536 SPF) Compression mode : Lossy Stream size : 65.2 MiB (6%) Service kind : Complete Main Text #1 ID : 189 (0xBD)-32 (0x20) Format : RLE Format/Info : Run-length encoding Muxing mode : DVD-Video Duration : 20 min 16 s Delay relative to video : 1 s 167 ms Text #2 ID : 189 (0xBD)-33 (0x21) Format : RLE Format/Info : Run-length encoding Muxing mode : DVD-Video Delay relative to video : 1 s 167 ms Menu ``` ___ DISCLAIMER: This is my own rip, so anyone else saying it's theirs is wrong. I don't mind others making mkv's of this and posting it onto here, just as long as they give me credit.

File list

  • Neon Genesis Evangelion Platinum Complete
    • Scans
      • Back of the Boxset.png (20.7 MiB)
      • Bottom of the Boxset.png (7.4 MiB)
      • Cover of DVD 1.png (52.7 MiB)
      • Cover of DVD 2.png (59.6 MiB)
      • Cover of DVD 3.png (63.0 MiB)
      • Cover of DVD 4.png (63.5 MiB)
      • Cover of DVD 5.png (60.1 MiB)
      • Cover of DVD 6.png (60.3 MiB)
      • DVD 1 (Back).png (5.9 MiB)
      • DVD 1 (Front).png (14.2 MiB)
      • DVD 2 (Back).png (6.2 MiB)
      • DVD 2 (Front).png (16.5 MiB)
      • DVD 3 (Back.png (6.1 MiB)
      • DVD 3 (Front).png (14.9 MiB)
      • DVD 4 (Back).png (7.0 MiB)
      • DVD 4 (Front).png (15.6 MiB)
      • DVD 5 (Back).png (6.8 MiB)
      • DVD 5 (Front).png (14.7 MiB)
      • DVD 6 (Back).png (6.5 MiB)
      • DVD 6 (Front).png (14.6 MiB)
      • Front of the Boxset.png (21.7 MiB)
      • Hype Poster.png (32.3 MiB)
      • Side of the Boxset (With Thinpaks).png (7.9 MiB)
      • Side of the Boxset (Without Thinpaks).png (5.6 MiB)
      • Spine of the Boxset.png (9.0 MiB)
      • Top of the Boxset.png (6.9 MiB)
    • Neon Genesis Evangelion Platinum Complete DVD 1.iso (6.4 GiB)
    • Neon Genesis Evangelion Platinum Complete DVD 2.iso (6.0 GiB)
    • Neon Genesis Evangelion Platinum Complete DVD 3.iso (6.1 GiB)
    • Neon Genesis Evangelion Platinum Complete DVD 4.iso (6.2 GiB)
    • Neon Genesis Evangelion Platinum Complete DVD 5.iso (6.8 GiB)
    • Neon Genesis Evangelion Platinum Complete DVD 6.iso (5.7 GiB)
Thanks for the upload. I just checked and disc 1 is the fixed version in which ADV had sent out replacement discs because some of Shinji's lines had been accidentally removed from episode 3, I've seen a few releases here that use the audio from the faulty version.