Hololive Usada Pekora - 【Minecraft】びっくりドッキリ楽しい射的を作っていくぅ!ぺこ!【ホロライブ_兎田ぺこら】 (Re7HyxU9Zlw)

Category:
Date:
2021-06-08 02:45 UTC
Submitter:
Seeders:
1
File size:
2.4 GiB
Completed:
19
Info hash:
a451eea5526c93bb157c05bc8f72f9dcdd01352a
General > Format : MPEG-4 > Format profile : Base Media > Codec ID : isom (isom/iso2/avc1/mp41) > File size : 2.45 GiB > Duration : 2 h 55 min > Overall bit rate : 1 995 kb/s > Writing application : Lavf59.0.100 Video > Format : AVC > Format profile : Main@L3.1 > Format settings : CABAC / 1 Ref Frames > Format settings, CABAC : Yes > Format settings, Reference frames : 1 frame > Format settings, GOP : M=1, N=30 > Codec ID : avc1 > Duration : 2 h 55 min > Bit rate : 1 859 kb/s > Width : 1 280 pixels > Height : 720 pixels > Display aspect ratio : 16:9 > Frame rate mode : Variable > Frame rate : 30.000 FPS > Minimum frame rate : 29.412 FPS > Maximum frame rate : 30.303 FPS > Color space : YUV > Chroma subsampling : 4:2:0 > Bit depth : 8 bits > Scan type : Progressive > Bits/(Pixel*Frame) : 0.067 > Stream size : 2.28 GiB (93%) Audio > Format : AAC LC > Codec ID : mp4a-40-2 > Duration : 2 h 55 min > Bit rate mode : Constant > Bit rate : 128 kb/s > Channel(s) : 2 channels > Channel layout : L R > Sampling rate : 44.1 kHz > Frame rate : 43.066 FPS (1024 SPF) > Compression mode : Lossy > Stream size : 161 MiB (6%) ![](https://i.imgur.com/tpK5tRm.jpg)

File list

  • [20210604] 【Minecraft】びっくりドッキリ楽しい射的を作っていくぅ!ぺこ!【ホロライブ_兎田ぺこら】 (Re7HyxU9Zlw).mp4 (2.4 GiB)