[NBLH] 泣くな研修医 Nakuna Kenshui 07 WEB-DL [1080p]

Category:
Date:
2021-06-05 19:55 UTC
Submitter:
Seeders:
2
Information:
No information.
Leechers:
0
File size:
486.5 MiB
Completed:
139
Info hash:
3e50de8ac73526a15782dc2327fd01575319c431
General Complete name : [NBLH] 泣くな研修医 Nakuna Kenshui 07 WEB-DL [1080p].mp4 Format : MPEG-4 Format profile : Base Media Codec ID : isom (isom/iso2/avc1/mp41) File size : 487 MiB Duration : 23 min 39 s Overall bit rate : 2 874 kb/s Writing application : Lavf58.77.100 Video ID : 1 Format : AVC Format/Info : Advanced Video Codec Format profile : High@L4 Format settings : CABAC / 4 Ref Frames Format settings, CABAC : Yes Format settings, Reference frames : 4 frames Codec ID : avc1 Codec ID/Info : Advanced Video Coding Duration : 23 min 39 s Source duration : 23 min 39 s Bit rate : 2 560 kb/s Maximum bit rate : 2 674 kb/s Width : 1 920 pixels Height : 1 080 pixels Display aspect ratio : 16:9 Frame rate mode : Constant Frame rate : 29.970 (30000/1001) FPS Color space : YUV Chroma subsampling : 4:2:0 Bit depth : 8 bits Scan type : Progressive Bits/(Pixel*Frame) : 0.041 Stream size : 433 MiB (89%) Source stream size : 453 MiB (93%) Color range : Limited Matrix coefficients : BT.709 mdhd_Duration : 1419919 Codec configuration box : avcC Audio ID : 2 Format : AAC LC Format/Info : Advanced Audio Codec Low Complexity Codec ID : mp4a-40-2 Duration : 23 min 39 s Bit rate mode : Constant Bit rate : 192 kb/s Channel(s) : 2 channels Channel layout : L R Sampling rate : 48.0 kHz Frame rate : 46.875 FPS (1024 SPF) Compression mode : Lossy Stream size : 32.4 MiB (7%) Default : Yes Alternate group : 1

File list

  • [NBLH] 泣くな研修医 Nakuna Kenshui 07 WEB-DL [1080p].mp4 (486.5 MiB)
Thank you so much. It will be pleasure from now on.