[neoHEVC] The Day I Became a God [Season 1] [BD 1080p x265 HEVC AAC] [Dual Audio] Kamisama ni Natta Hi

Category:
Date:
2021-06-05 13:07 UTC
Submitter:
Seeders:
9
Information:
Leechers:
2
File size:
3.5 GiB
Completed:
225
Info hash:
2d915283a5ccb646f879dd1fa855fec40853b6e0
![](https://i.imgur.com/RBlGp48.png) *Join **[Discord](https://discord.gg/KYKYZUh)** for Current Projects, Encode-Requests and Seed-Request in case of no available seeds.* **The Day I Became A God / Kamisama ni Natta Hi [Season 1]** *with `Dual Audio (Jpn/Eng)` and `Eng Subs` in `BD 1080p HEVC`* Encode of [TTGA] (x264 AVC FLAC) to (x265 HEVC AAC). ![](https://i.imgur.com/4iegWLL.png) **[Trailer](https://www.youtube.com/watch?v=NdtSsHznnDc)** ![](https://i.imgur.com/3UxGuWB.png) ![](https://i.imgur.com/ZCtSawZ.png) **[MyAnimeList](https://myanimelist.net/anime/41930/Kamisama_ni_Natta_Hi)** --- **Synopsis** Dressed in a conspicuous outfit and armed with an eccentric spirit, Hina Satou goes around insisting that she is the Asgardian god "Odin." When she crosses paths with a boy named Youta Narukami, she uses her precognition abilities to warn him about an impending catastrophe threatening the end of the world. But being a teenager preoccupied with his problems, Youta finds it hard to believe such a preposterous claim. Somehow forced to tag along with her antics, he witnesses the effectiveness of Hina's skills with his own eyes and realizes that she truly is capable of divination. Nevertheless, despite her persistence in being a god, Hina is still a child who desires to see and experience the wonders life has to offer. With the world ending in 30 days, Hina, Youta, and their friends venture forward to create lasting memories they will cherish forever. ![](https://i.imgur.com/UV19ooj.png) --- **Language Options** I included two simple scripts that you can apply to these files to do the following (Windows only): 1. Change [Default Tracks]: Switches default tracks to *A:Japanese S:Dialog* 2. Make [Single Audio]: Throws out *English audio* and *Signs&Songs subtitles* tracks To apply these put all the video files into the *Language Options* folder and run the .bat file. <1> Changes existing files, <2> creates new ones in the *output* folder. --- **Comparison** *Open links, toggle with mouseclick and check title.* [![](https://i.imgur.com/9vhoIh3.png)](https://slow.pics/c/Wkg1hdVy) [![](https://i.imgur.com/VBy0IRj.png)](https://slow.pics/c/CWSNeQdJ) [![](https://i.imgur.com/n0up0PH.png)](https://slow.pics/c/BTETxZBI) --- **Source** ?️ Video, ENG/JPN Audio and Subs: **[[TTGA]](https://nyaa.si/view/1393710)** ? *Subtitles Info: [GJM] - Format `ASS`* --- **Media Info** ? [Full Mediainfo incl. Encoder Settings](https://pastebin.com/h2kTQgM4) ``` General Unique ID : 30696846849340776206440463237762728064 (0x1717FF6649BC2E4F545E741D6AEF4080) Complete name : The Day I Became a God - S01E01.mkv Format : Matroska Format version : Version 4 File size : 277 MiB Duration : 24 min 2 s Overall bit rate : 1 612 kb/s Movie name : The Day I Became a God - S01E01 Encoded date : UTC 2021-06-05 08:45:13 Writing application : mkvmerge v47.0.0 ('Black Flag') 64-bit Writing library : libebml v1.3.10 + libmatroska v1.5.2 / Lavf58.29.100 Attachments : KOZGOPR6N-HEAVY.OTF / LAOUI.TTF / LAOUI-BOLD.TTF / NEWCINEMAASTD-D.OTF / NEWRODINPRON-DB.OTF / NTHARMONICAPS-BOLDOBLIQUE.TTF / PASTEL.TTF / PR-DIMSUM-REGULAR.OTF / RODINMARIAPRO-B.OTF / VELOURBOLD-BOLD.OTF / WCRHESUSABTA.OTF / ADVERT-BOLD.OTF / AFTERGLOW-REGULAR.TTF / BDCARTOONSHOUT.TTF / BLOGGERSANS-BOLD.OTF / CEZANNEBOKUTOHPRO-B.OTF / FOT-GRECOSTDDB-EN.TTF / FOT-MATISSEELEGANTOPRO-EB.TTF / GANDHISANS-BOLD.OTF / GANDHISANS-BOLDITALIC.OTF / HGPSOEIKAKUPOPTAI.TTF / HLBRUSH3BK.TTF / IWAMINPROEN-BD.OTF / IWAOMINPRO-HV.TTF Video ID : 1 Format : HEVC Format/Info : High Efficiency Video Coding Format profile : Main 10@L4.1@High Codec ID : V_MPEGH/ISO/HEVC Duration : 24 min 1 s Bit rate : 991 kb/s Width : 1 920 pixels Height : 1 080 pixels Display aspect ratio : 16:9 Frame rate mode : Constant Frame rate : 23.976 (24000/1001) FPS Color space : YUV Chroma subsampling : 4:2:0 Bit depth : 10 bits Bits/(Pixel*Frame) : 0.020 Stream size : 170 MiB (61%) Writing library : x265 3.2.1+1-b5c86a64bbbe:[Windows][GCC 9.2.0][64 bit] 10bit Encoding settings : <Check Link Above> Default : Yes Forced : No Color range : Limited Color primaries : BT.709 Transfer characteristics : BT.709 Matrix coefficients : BT.709 Audio #1 ID : 2 Format : AAC LC Format/Info : Advanced Audio Codec Low Complexity Codec ID : A_AAC-2 Duration : 24 min 0 s Bit rate : 129 kb/s Channel(s) : 2 channels Channel layout : L R Sampling rate : 48.0 kHz Frame rate : 46.875 FPS (1024 SPF) Compression mode : Lossy Delay relative to video : -43 ms Stream size : 22.1 MiB (8%) Title : Stereo - ENG (AAC) Language : English Default : Yes Forced : No Audio #2 ID : 3 Format : AAC LC Format/Info : Advanced Audio Codec Low Complexity Codec ID : A_AAC-2 Duration : 24 min 2 s Bit rate : 123 kb/s Channel(s) : 2 channels Channel layout : L R Sampling rate : 48.0 kHz Frame rate : 46.875 FPS (1024 SPF) Compression mode : Lossy Delay relative to video : -43 ms Stream size : 21.1 MiB (8%) Title : Stereo - JPN (AAC) Language : Japanese Default : No Forced : No Text #1 ID : 4 Format : ASS Codec ID : S_TEXT/ASS Codec ID/Info : Advanced Sub Station Alpha Duration : 22 min 30 s Bit rate : 91.5 kb/s Count of elements : 12982 Compression mode : Lossless Stream size : 14.7 MiB (5%) Title : Signs & Songs - ENG (ASS) Language : English Default : Yes Forced : No Text #2 ID : 5 Format : ASS Codec ID : S_TEXT/ASS Codec ID/Info : Advanced Sub Station Alpha Duration : 23 min 45 s Bit rate : 86.9 kb/s Count of elements : 13477 Compression mode : Lossless Stream size : 14.8 MiB (5%) Title : Dialog - ENG (ASS) Language : English Default : No Forced : No Menu 00:00:00.000 : :Intro 00:12:10.104 : :Main EP 00:22:03.489 : :ED ```

File list

  • [neoHEVC] The Day I Became a God [BD 1080p x265 HEVC AAC] [Dual Audio]
    • Language Options
      • 1. Change [Default Tracks].bat (283 Bytes)
      • 2. Make [Single Audio] Japanese.bat (124 Bytes)
      • mkvmerge.exe (9.6 MiB)
      • mkvpropedit.exe (5.1 MiB)
      • readme.txt (486 Bytes)
    • The Day I Became a God - S01E01.mkv (277.1 MiB)
    • The Day I Became a God - S01E02.mkv (300.8 MiB)
    • The Day I Became a God - S01E03.mkv (384.0 MiB)
    • The Day I Became a God - S01E04.mkv (423.4 MiB)
    • The Day I Became a God - S01E05.mkv (243.5 MiB)
    • The Day I Became a God - S01E06.mkv (331.5 MiB)
    • The Day I Became a God - S01E07.mkv (302.3 MiB)
    • The Day I Became a God - S01E08.mkv (258.1 MiB)
    • The Day I Became a God - S01E09.mkv (292.0 MiB)
    • The Day I Became a God - S01E10.mkv (274.1 MiB)
    • The Day I Became a God - S01E11.mkv (262.0 MiB)
    • The Day I Became a God - S01E12.mkv (194.7 MiB)
A lot of episodes have the dialogue sub track switched with the signs & songs one