[BYG-RAWS][求婚大作战/プロポーズ大作戦/Operation Love][HD1080P][内嵌中文字幕]

Category:
Date:
2021-06-04 15:00 UTC
Submitter:
Anonymous
Seeders:
0
Information:
No information.
Leechers:
0
File size:
18.8 GiB
Completed:
36
Info hash:
bc4388f13fd43b9ee2b1dd623c419cf028352463
ID : 1 Format : AVC Format/Info : Advanced Video Codec Format profile : High@L5.1 Format settings, CABAC : Yes Format settings, ReFrames : 4 frames Codec ID : avc1 Codec ID/Info : Advanced Video Coding Duration : 46 min 49 s Bit rate : 4 021 kb/s Width : 1 920 pixels Height : 1 080 pixels Display aspect ratio : 16:9 Frame rate mode : Constant Frame rate : 30.000 FPS Color space : YUV Chroma subsampling : 4:2:0 Bit depth : 8 bits Scan type : Progressive Bits/(Pixel*Frame) : 0.065 Stream size : 1.32 GiB (95%) Writing library : x264 core 161 r3015 4c2aafd Encoding settings : cabac=1 / ref=3 / deblock=1:0:0 / analyse=0x3:0x113 / me=hex / subme=7 / psy=0 / mixed_ref=1 / me_range=16 / chroma_me=1 / trellis=1 / 8x8dct=1 / cqm=0 / deadzone=21,11 / fast_pskip=1 / chroma_qp_offset=0 / threads=18 / lookahead_threads=3 / sliced_threads=0 / nr=0 / decimate=1 / interlaced=0 / bluray_compat=0 / constrained_intra=0 / bframes=3 / b_pyramid=2 / b_adapt=1 / b_bias=0 / direct=1 / weightb=1 / open_gop=0 / weightp=2 / keyint=300 / keyint_min=30 / scenecut=40 / intra_refresh=0 / rc_lookahead=40 / rc=crf / mbtree=1 / crf=21.0 / qcomp=0.60 / qpmin=0 / qpmax=69 / qpstep=4 / ip_ratio=1.40 / aq=2:1.00 ID : 2 Format : AAC Format/Info : Advanced Audio Codec Format profile : LC Codec ID : 40 Duration : 46 min 49 s Bit rate mode : Constant Bit rate : 192 kb/s Channel(s) : 2 channels Channel positions : Front: L R Sampling rate : 44.1 kHz Frame rate : 43.066 FPS (1024 spf) Compression mode : Lossy Stream size : 64.3 MiB (5%) Default : Yes Alternate group : 1

File list

  • Operation Love
    • 01.mp4 (1.8 GiB)
    • 02.mp4 (1.4 GiB)
    • 03.mp4 (1.3 GiB)
    • 04.mp4 (1.3 GiB)
    • 05.mp4 (1.6 GiB)
    • 06.mp4 (1.4 GiB)
    • 07.mp4 (1.3 GiB)
    • 08.mp4 (1.3 GiB)
    • 09.mp4 (1.3 GiB)
    • 10.mp4 (1.3 GiB)
    • 11.mp4 (1.5 GiB)
    • SP.mp4 (3.3 GiB)
Wow HD version! Thanks.
Thank you for uploading this video. I completed 50%. So please seed it again. Thanks