[NBLH] カラフラブル ~ Colorful Love EP 10 WEB-DL [1080p]

Category:
Date:
2021-06-04 14:58 UTC
Submitter:
Seeders:
0
Information:
No information.
Leechers:
1
File size:
892.3 MiB
Completed:
94
Info hash:
d866316ca58c9335cb88cc32e924815ba3859e2d
General Complete name : D:\[NBLH] カラフラブル ~ Colorful Love EP 10 WEB-DL [1080p].mp4 Format : MPEG-4 Format profile : Base Media Codec ID : isom (isom/iso2/avc1/mp41) File size : 892 MiB Duration : 43 min 4 s Overall bit rate : 2 897 kb/s Writing application : Lavf58.77.100 Video ID : 1 Format : AVC Format/Info : Advanced Video Codec Format profile : High@L4 Format settings : CABAC / 4 Ref Frames Format settings, CABAC : Yes Format settings, Reference frames : 4 frames Codec ID : avc1 Codec ID/Info : Advanced Video Coding Duration : 43 min 4 s Source duration : 43 min 4 s Bit rate : 2 581 kb/s Maximum bit rate : 2 696 kb/s Width : 1 920 pixels Height : 1 080 pixels Display aspect ratio : 16:9 Frame rate mode : Constant Frame rate : 29.970 (30000/1001) FPS Color space : YUV Chroma subsampling : 4:2:0 Bit depth : 8 bits Scan type : Progressive Bits/(Pixel*Frame) : 0.042 Stream size : 795 MiB (89%) Source stream size : 831 MiB (93%) Color range : Limited Color primaries : BT.709 Transfer characteristics : BT.709 Matrix coefficients : BT.709 mdhd_Duration : 2584115 Codec configuration box : avcC Audio ID : 2 Format : AAC LC Format/Info : Advanced Audio Codec Low Complexity Codec ID : mp4a-40-2 Duration : 43 min 4 s Bit rate mode : Constant Bit rate : 192 kb/s Channel(s) : 2 channels Channel layout : L R Sampling rate : 48.0 kHz Frame rate : 46.875 FPS (1024 SPF) Compression mode : Lossy Stream size : 59.0 MiB (7%) Default : Yes Alternate group : 1

File list

  • [NBLH] カラフラブル ~ Colorful Love EP 10 WEB-DL [1080p].mp4 (892.3 MiB)
Thank you so much. It will be pleasure from now on.