[KayRips] Running Man Episode 557 [1080p][WEB-DL x264][Eng-Subs]

Category:
Date:
2021-06-04 03:51 UTC
Submitter:
Seeders:
3
Information:
Leechers:
0
File size:
2.4 GiB
Completed:
21
Info hash:
c30ab56c10fa56e5fead128edbb077a7b92827b4
DDL on discord https://discord.gg/whtT7vqfKB **Title :** Running Man / 런닝맨 **Episode :** 557 / S2021E557 **Country :** South Korea **Genre :** Korean Variety Show **Duration :** 1 h 21 min 40 sec ``` Video ID : 1 Format : AVC Format/Info : Advanced Video Codec Format profile : High@L4.1 Format settings : CABAC / 4 Ref Frames Format settings, CABAC : Yes Format settings, Reference frames : 4 frames Codec ID : V_MPEG4/ISO/AVC Duration : 1 h 21 min Bit rate mode : Variable Bit rate : 4 033 kb/s Maximum bit rate : 4 500 kb/s Width : 1 920 pixels Height : 1 080 pixels Display aspect ratio : 16:9 Frame rate mode : Constant Frame rate : 29.970 (30000/1001) FPS Original frame rate : 29.970 (29970/1000) FPS Color space : YUV Chroma subsampling : 4:2:0 Bit depth : 8 bits Scan type : Progressive Bits/(Pixel*Frame) : 0.065 Stream size : 2.30 GiB (98%) Title : [KayRips] Writing library : VOLO1.4.1 Default : Yes Forced : No Audio ID : 2 Format : AAC LC Format/Info : Advanced Audio Codec Low Complexity Codec ID : A_AAC-2 Duration : 1 h 21 min Bit rate : 96.0 kb/s Channel(s) : 2 channels Channel layout : L R Sampling rate : 48.0 kHz Frame rate : 46.875 FPS (1024 SPF) Compression mode : Lossy Delay relative to video : -42 ms Stream size : 56.1 MiB (2%) Language : Korean Default : Yes Forced : No ``` ![alt text](https://i.ibb.co/yN4xdtC/Kay-Rips-Running-Man-S2021-E557-557-mkv-20210604-114932-599.png)

File list

  • [KayRips] Running Man - S2021E557 (557).mkv (2.4 GiB)
Thank you. Is this the last episode with Lee Kwang Soo ?

kayrips (uploader)

User
Nope, it’s episode 559 if I'm not wrong (judging from the preview), sorry for uploading a little late, my internet is absolute garbage since this full lockdown at my place.
Don't worry, It's already plenty just to be able to watch it, take your time, thank you.