Digimon.Tamers.Battle.of.Adventurers.2001.1080p.BluRay.Dual-Audio.TrueHD.AC3.5.1.AAC.2.0.x265-VeloEncodes

Category:
Date:
2021-05-31 13:56 UTC
Submitter:
Seeders:
7
Information:
Leechers:
0
File size:
6.4 GiB
Completed:
690
Info hash:
424d4a9cd63846c4953161a6c6e3d8855cb3cf40
![](https://i.imgur.com/TMGebm1.png) ![](https://i.imgur.com/hrtFLIT.jpg) The first *Digimon Tamers* movie, in glorious, full HD, dual-audio greatness. Efforts were made to sync the dub to the BluRay as well as possible, but in the case of an entire deleted sequence that doesn't show up in the dub, subtitles are briefly used. **MediaInfo:** ``` General Unique ID : 163737038424057817829464359718477677992 (0x7B2E9B45972EC661854DAA7D4850C5A8) Complete name : F:\Movies\Digimon.Tamers.Battle.of.Adventurers.2001.1080p.BluRay.Dual-Audio.TrueHD.AC3.5.1.AAC.2.0.x265-VeloEncodes.mkv Format : Matroska Format version : Version 4 File size : 6.41 GiB Duration : 51 min 0 s Overall bit rate mode : Variable Overall bit rate : 18.0 Mb/s Movie name : Digimon.Tamers.Battle.of.Adventurers.2001.1080p.BluRay.Dual-Audio.TrueHD.AAC.2.0.x265-VeloEncodes Encoded date : UTC 2021-04-10 06:17:42 Writing application : mkvmerge v53.0.0 ('Fool's Gold') 64-bit Writing library : libebml v1.4.1 + libmatroska v1.6.2 Attachments : BRITANIC_0.TTF / calibrib_0.ttf / Headache_0.ttf Encoding Gui : Hybrid 2021.01.31.1 Video ID : 1 Format : HEVC Format/Info : High Efficiency Video Coding Format profile : Main 10@L4@High Codec ID : V_MPEGH/ISO/HEVC Duration : 51 min 0 s Bit rate : 15.9 Mb/s Width : 1 920 pixels Height : 1 080 pixels Display aspect ratio : 16:9 Frame rate mode : Constant Frame rate : 23.976 (24000/1001) FPS Color space : YUV Chroma subsampling : 4:2:0 Bit depth : 10 bits Bits/(Pixel*Frame) : 0.320 Stream size : 5.67 GiB (88%) Writing library : x265 3.4+31-681c05e83:[Windows][GCC 10.2.0][64 bit] 10bit Encoding settings : cpuid=1111039 / frame-threads=3 / numa-pools=8 / wpp / no-pmode / no-pme / no-psnr / no-ssim / log-level=2 / input-csp=1 / input-res=1920x1080 / interlace=0 / total-frames=0 / level-idc=0 / high-tier=1 / uhd-bd=0 / ref=3 / no-allow-non-conformance / no-repeat-headers / annexb / no-aud / no-hrd / info / hash=0 / no-temporal-layers / no-open-gop / min-keyint=23 / keyint=250 / gop-lookahead=0 / bframes=4 / b-adapt=2 / b-pyramid / bframe-bias=0 / rc-lookahead=20 / lookahead-slices=0 / scenecut=40 / hist-scenecut=0 / radl=0 / no-splice / no-intra-refresh / ctu=64 / min-cu-size=8 / no-rect / no-amp / max-tu-size=32 / tu-inter-depth=1 / tu-intra-depth=1 / limit-tu=0 / rdoq-level=2 / dynamic-rd=0.00 / ssim-rd / signhide / no-tskip / nr-intra=0 / nr-inter=0 / no-constrained-intra / strong-intra-smoothing / max-merge=3 / limit-refs=0 / limit-modes / me=1 / subme=2 / merange=57 / temporal-mvp / no-frame-dup / no-hme / weightp / no-weightb / no-analyze-src-pics / deblock=-1:-1 / sao / no-sao-non-deblock / rd=3 / selective-sao=4 / no-early-skip / rskip / no-fast-intra / no-tskip-fast / no-cu-lossless / b-intra / no-splitrd-skip / rdpenalty=0 / psy-rd=2.50 / psy-rdoq=10.00 / no-rd-refine / no-lossless / cbqpoffs=-2 / crqpoffs=-2 / rc=abr / bitrate=15909 / qcomp=0.60 / qpstep=4 / stats-write=0 / stats-read=2 / cplxblur=20.0 / qblur=0.5 / ipratio=1.40 / pbratio=1.30 / aq-mode=1 / aq-strength=0.00 / cutree / zone-count=0 / no-strict-cbr / qg-size=32 / no-rc-grain / qpmax=69 / qpmin=0 / no-const-vbv / sar=0 / overscan=0 / videoformat=5 / range=0 / colorprim=2 / transfer=2 / colormatrix=1 / chromaloc=0 / display-window=0 / cll=0,0 / min-luma=0 / max-luma=1023 / log2-max-poc-lsb=8 / vui-timing-info / vui-hrd-info / slices=1 / opt-qp-pps / opt-ref-list-length-pps / no-multi-pass-opt-rps / scenecut-bias=0.05 / hist-threshold=0.03 / no-opt-cu-delta-qp / no-aq-motion / no-hdr10 / no-hdr10-opt / no-dhdr10-opt / no-idr-recovery-sei / analysis-reuse-level=0 / analysis-save-reuse-level=0 / analysis-load-reuse-level=0 / scale-factor=0 / refine-intra=0 / refine-inter=0 / refine-mv=1 / refine-ctu-distortion=0 / limit-sao / ctu-info=0 / no-lowpass-dct / refine-analysis-type=0 / copy-pic=1 / max-ausize-factor=1.0 / no-dynamic-refine / no-single-sei / no-hevc-aq / no-svt / no-field / qp-adaptation-range=1.00 / no-scenecut-aware-qpconformance-window-offsets / right=0 / bottom=0 / decoder-max-rate=0 / no-vbv-live-multi-pass Language : Japanese Default : Yes Forced : Yes Color range : Limited Matrix coefficients : BT.709 Audio #1 ID : 2 Format : MLP FBA Format/Info : Meridian Lossless Packing FBA Commercial name : Dolby TrueHD Codec ID : A_TRUEHD Duration : 51 min 0 s Bit rate mode : Variable Bit rate : 1 811 kb/s Maximum bit rate : 3 093 kb/s Channel(s) : 6 channels Channel layout : L R C LFE Ls Rs Sampling rate : 48.0 kHz Frame rate : 1 200.000 FPS (40 SPF) Compression mode : Lossless Stream size : 661 MiB (10%) Title : Original Japanese Audio Language : Japanese Default : No Forced : No Audio #2 ID : 3 Format : AAC LC Format/Info : Advanced Audio Codec Low Complexity Codec ID : A_AAC-2 Duration : 51 min 0 s Bit rate : 192 kb/s Channel(s) : 2 channels Channel layout : L R Sampling rate : 48.0 kHz Frame rate : 46.875 FPS (1024 SPF) Compression mode : Lossy Stream size : 71.5 MiB (1%) Title : Disney XD English Dub Language : English Default : Yes Forced : No Text #1 ID : 4 Format : ASS Codec ID : S_TEXT/ASS Codec ID/Info : Advanced Sub Station Alpha Duration : 50 min 7 s Bit rate : 122 b/s Count of elements : 701 Compression mode : Lossless Stream size : 45.1 KiB (0%) Title : Styled subs by The Wild Bunch Language : English Default : No Forced : No Text #2 ID : 5 Format : ASS Codec ID : S_TEXT/ASS Codec ID/Info : Advanced Sub Station Alpha Duration : 1 min 25 s Bit rate : 34 b/s Count of elements : 9 Compression mode : Lossless Stream size : 373 Bytes (0%) Title : Missing lines sub by The Wild Bunch & Velocifaptor Language : English Default : Yes Forced : No ``` **Screenshots:** ![](http://hijo-de-puta.wheres-my-ta.co/7ctqmL.jpeg) ![](https://hijo-de-puta.wheres-my-ta.co/92fZXP.jpeg) ![](https://hijo-de-puta.wheres-my-ta.co/SJcGdX.jpeg) ![](https://hijo-de-puta.wheres-my-ta.co/4g36nw.jpeg) ![](https://hijo-de-puta.wheres-my-ta.co/2I46Us.jpeg) ![](https://hijo-de-puta.wheres-my-ta.co/VBaSqk.jpeg) ![](https://hijo-de-puta.wheres-my-ta.co/tEAyjD.jpeg) ![](https://hijo-de-puta.wheres-my-ta.co/b2GXWQ.jpeg) *Enjoy, and don’t forget to seed!* **For more DigiTastic content, join our Telegram channel:** http://t.me/veloencodesreleases **Follow me on Parler:** @basedvelo It’s a new year, and all I ask is that you support me with your kind words of encouragement and continued downloads of my releases.

File list

  • Digimon.Tamers.Battle.of.Adventurers.2001.1080p.BluRay.Dual-Audio.TrueHD.AC3.5.1.AAC.2.0.x265-VeloEncodes.mkv (6.4 GiB)
Thank you so much for continuing to do this I can't wait to see the entire Tamers series in dual audio and hopefully Frontier as well.

thecharioteermode (uploader)

User
@mitchevan1 thanks for the kind words, but as of this moment BFT and I are working on a dubbed-over-raw Tamers release, as the dual-audio project was scrapped. Two volumes of the dubbed-over-raw release have been uploaded in stereophonic audio to Nyaa, and I hope to do a proper 5.1 upmix when I get time. With regards to Frontier, I hope to release something in the next few months. If you're in Anichiraku, you already know what's up ? Also, if you're a fan of Savers/Data Squad, something amazing is coming very, very soon.
@thecharioteermode thank you so much for all of your work! Are you still working on the tamers series? Anywhere we can send a donation?

thecharioteermode (uploader)

User
@holyboredom, Tamers is still in progress, but not in dual-audio, as previously mentioned. However, if you'd like to send a donation, the wallet addresses are mentioned in my latest torrent. Please do not send any funds to any of the wallet addresses or other places mentioned on any of my previous torrents. With Tamers, the idea is to focus on the supercuts first, and then release the individual episodes as a batch torrent. BFT and I are hard at work on it, but at this point it's mostly BFT tbf. Also, yes, I realize I replied a whole year later, because I literally saw your comment just now 🥲