Erased [HEVC][1080p][BD][ENG DUB][COMPLETE]

Category:
Date:
2021-05-30 11:45 UTC
Submitter:
Seeders:
2
Information:
No information.
Leechers:
0
File size:
2.9 GiB
Completed:
53
Info hash:
679c78ef8cfc5daa240b695d5421fe97e8c63a04
Video :- HEVC Main 10 @ 4.0 Audio :- AAC @245kb/s Video ID : 1 Format : HEVC Format/Info : High Efficiency Video Coding Format profile : Main 10@L4@Main Codec ID : V_MPEGH/ISO/HEVC Duration : 22 min 52 s Bit rate : 1 975 kb/s Width : 1 920 pixels Height : 1 080 pixels Display aspect ratio : 16:9 Frame rate mode : Constant Frame rate : 23.976 (24000/1001) FPS Color space : YUV Chroma subsampling : 4:2:0 Bit depth : 10 bits Bits/(Pixel*Frame) : 0.040 Stream size : 323 MiB (87%) Writing library : x265 3.4+1-7b120308dc64:[Windows][MSVC 1926][64 bit] 10bit Encoding settings : cpuid=1111039 / frame-threads=3 / numa-pools=12 / wpp / no-pmode / no-pme / no-psnr / no-ssim / log-level=2 / input-csp=1 / input-res=1920x1080 / interlace=0 / total-frames=32896 / level-idc=0 / high-tier=1 / uhd-bd=0 / ref=4 / no-allow-non-conformance / no-repeat-headers / annexb / no-aud / no-hrd / info / hash=0 / no-temporal-layers / open-gop / min-keyint=23 / keyint=250 / gop-lookahead=0 / bframes=8 / b-adapt=2 / b-pyramid / bframe-bias=0 / rc-lookahead=80 / lookahead-slices=6 / scenecut=40 / hist-scenecut=0 / radl=0 / no-splice / no-intra-refresh / ctu=64 / min-cu-size=8 / rect / no-amp / max-tu-size=32 / tu-inter-depth=1 / tu-intra-depth=1 / limit-tu=0 / rdoq-level=2 / dynamic-rd=0.00 / no-ssim-rd / signhide / no-tskip / nr-intra=0 / nr-inter=0 / no-constrained-intra / strong-intra-smoothing / max-merge=3 / limit-refs=3 / limit-modes / me=3 / subme=3 / merange=57 / temporal-mvp / no-frame-dup / no-hme / weightp / no-weightb / no-analyze-src-pics / deblock=0:0 / sao / no-sao-non-deblock / rd=4 / selective-sao=4 / no-early-skip / rskip / no-fast-intra / no-tskip-fast / no-cu-lossless / no-b-intra / no-splitrd-skip / rdpenalty=0 / psy-rd=2.00 / psy-rdoq=1.00 / no-rd-refine / no-lossless / cbqpoffs=0 / crqpoffs=0 / rc=crf / crf=19.0 / qcomp=0.60 / qpstep=4 / stats-write=0 / stats-read=0 / ipratio=1.40 / pbratio=1.30 / aq-mode=2 / aq-strength=1.00 / cutree / zone-count=0 / no-strict-cbr / qg-size=32 / no-rc-grain / qpmax=69 / qpmin=0 / no-const-vbv / sar=0 / overscan=0 / videoformat=5 / range=0 / colorprim=2 / transfer=2 / colormatrix=2 / chromaloc=0 / display-window=0 / cll=0,0 / min-luma=0 / max-luma=1023 / log2-max-poc-lsb=8 / vui-timing-info / vui-hrd-info / slices=1 / no-opt-qp-pps / no-opt-ref-list-length-pps / no-multi-pass-opt-rps / scenecut-bias=0.05 / hist-threshold=0.01 / no-opt-cu-delta-qp / no-aq-motion / no-hdr10 / no-hdr10-opt / no-dhdr10-opt / no-idr-recovery-sei / analysis-reuse-level=0 / analysis-save-reuse-level=0 / analysis-load-reuse-level=0 / scale-factor=0 / refine-intra=0 / refine-inter=0 / refine-mv=1 / refine-ctu-distortion=0 / no-limit-sao / ctu-info=0 / no-lowpass-dct / refine-analysis-type=0 / copy-pic=1 / max-ausize-factor=1.0 / no-dynamic-refine / no-single-sei / no-hevc-aq / no-svt / no-field / qp-adaptation-range=1.00 / no-scenecut-aware-qpconformance-window-offsets / right=0 / bottom=0 / decoder-max-rate=0 Default : Yes Forced : No Audio ID : 2 Format : AAC LC Format/Info : Advanced Audio Codec Low Complexity Codec ID : A_AAC-2 Duration : 22 min 52 s Bit rate : 243 kb/s Channel(s) : 2 channels Channel layout : L R Sampling rate : 48.0 kHz Frame rate : 46.875 FPS (1024 SPF) Compression mode : Lossy Delay relative to video : 20 ms Stream size : 39.8 MiB (11%) Language : English Default : Yes Forced : No Text ID : 3 Format : PGS Codec ID : S_HDMV/PGS Codec ID/Info : Picture based subtitle format used on BDs/HD-DVDs Duration : 22 min 19 s Bit rate : 37.8 kb/s Count of elements : 655 Stream size : 6.04 MiB (2%) Language : English Default : Yes Forced : No Menu 00:00:00.000 : :Prologue 00:03:10.982 : :Part A 00:10:52.986 : :Part B 00:21:20.988 : :OP

File list

  • Erased
    • ERASED S01E01 Flashing Before My Eyes.mkv (369.2 MiB)
    • ERASED S01E02 Palm of the Hand.mkv (255.9 MiB)
    • ERASED S01E03 Birthmark.mkv (232.3 MiB)
    • ERASED S01E04 Accomplishment.mkv (223.1 MiB)
    • ERASED S01E05 Getaway.mkv (242.4 MiB)
    • ERASED S01E06 Grim Reaper.mkv (257.4 MiB)
    • ERASED S01E07 Out of Control.mkv (209.3 MiB)
    • ERASED S01E08 Spiral.mkv (206.9 MiB)
    • ERASED S01E09 Closure.mkv (215.5 MiB)
    • ERASED S01E10 Joy.mkv (223.4 MiB)
    • ERASED S01E11 Future.mkv (209.7 MiB)
    • ERASED S01E12 Treasure.mkv (279.8 MiB)
    • theme.mp3 (880.8 KiB)
Lacks Signs/Songs subtitles.