Kizuna AI キズナアイ Virtual US Tour Live Day 2 NY (2021.05.29) [WEBRip 1080p] + After Party

Category:
Date:
2021-05-30 04:49 UTC
Submitter:
Seeders:
8
Information:
No information.
Leechers:
0
File size:
3.9 GiB
Completed:
253
Info hash:
89cb429fef2c30b27729aa62fb2cc48dd3abd794
# **Kizuna AI キズナアイ Virtual US Tour Live Day 2 NY (2021.05.29) [WEBRip 1080p] + After Party** --- **5/29(SAT) 9:00 p.m (NY/GMT-05:00) = 5/30(SUN) 10:00 a.m(TYO/GMT+09:00) at MOMENT HOUSE (Online) / Act:Kizuna AI, Alaina Castiilo, Moe Shop** momenthouse.com/kizunaai --- [![Kizuna AI キズナアイ Virtual US Tour Live Day 2 NY (2021.05.29) [WEBRip 1080p] + After Party ](https://puu.sh/HKOTI/67608e1999.png "Kizuna AI キズナアイ Virtual US Tour Live Day 2 NY (2021.05.29) [WEBRip 1080p] + After Party ")](https://puu.sh/HKOVA/5a5fc5d924.png) --- `Technical info:` `Unique ID : 227928072431716911830963640727016531288 (0xAB795998B342748CD4E950398E836558)` `Format : Matroska` `Format version : Version 4` `File size : 2.38 GiB` `Duration : 49 min 13 s` `Overall bit rate mode : Variable` `Overall bit rate : 6 928 kb/s` `Encoded date : UTC 2021-05-30 03:39:35` `Writing application : mkvmerge v57.0.0 ('Till The End') 64-bit` `Writing library : libebml v1.4.2 + libmatroska v1.6.4` `Video` `ID : 1` `Format : AVC` `Format/Info : Advanced Video Codec` `Format profile : High@L4` `Format settings : CABAC / 5 Ref Frames` `Format settings, CABAC : Yes` `Format settings, Reference fra : 5 frames` `Codec ID : V_MPEG4/ISO/AVC` `Duration : 49 min 13 s` `Bit rate : 4 899 kb/s` `Width : 1 920 pixels` `Height : 1 080 pixels` `Display aspect ratio : 16:9` `Frame rate mode : Constant` `Frame rate : 29.970 (30000/1001) FPS` `Color space : YUV` `Chroma subsampling : 4:2:0` `Bit depth : 8 bits` `Scan type : Progressive` `Bits/(Pixel*Frame) : 0.079` `Stream size : 1.68 GiB (71%)` `Writing library : x264 core 161 r10 c347e7a` `Encoding settings : cabac=1 / ref=5 / deblock=1:0:0 / analyse=0x3:0x113 / me=hex / subme=8 / psy=1 / psy_rd=1.00:0.00 / mixed_ref=1 / me_range=16 / chroma_me=1 / trellis=2 / 8x8dct=1 / cqm=0 / deadzone=21,11 / fast_pskip=1 / chroma_qp_offset=-2 / threads=34 / lookahead_threads=5 / sliced_threads=0 / nr=0 / decimate=1 / interlaced=0 / bluray_compat=0 / stitchable=1 / constrained_intra=0 / bframes=3 / b_pyramid=2 / b_adapt=2 / b_bias=0 / direct=3 / weightb=1 / open_gop=0 / weightp=2 / keyint=infinite / keyint_min=29 / scenecut=40 / intra_refresh=0 / rc_lookahead=50 / rc=crf / mbtree=1 / crf=20.0 / qcomp=0.60 / qpmin=5 / qpmax=69 / qpstep=4 / vbv_maxrate=5500 / vbv_bufsize=15000 / crf_max=0.0 / nal_hrd=none / filler=0 / ip_ratio=1.40 / aq=1:1.00` `Default : Yes` `Forced : No` `Color range : Limited` `Color primaries : BT.709` `Transfer characteristics : BT.709` `Matrix coefficients : BT.709` `Audio #1` `ID : 2` `Format : FLAC` `Format/Info : Free Lossless Audio Codec` `Codec ID : A_FLAC` `Duration : 49 min 13 s` `Bit rate mode : Variable` `Bit rate : 1 773 kb/s` `Channel(s) : 2 channels` `Channel layout : L R` `Sampling rate : 48.0 kHz` `Frame rate : 11.719 FPS (4096 SPF)` `Bit depth : 24 bits` `Compression mode : Lossless` `Delay relative to video : -67 ms` `Stream size : 624 MiB (26%)` `Title : FLAC` `Writing library : libFLAC 1.3.2 (UTC 2017-01-01)` `Default : Yes` `Forced : No` `Audio #2` `ID : 3` `Format : AAC LC` `Format/Info : Advanced Audio Codec Low Complexity` `Codec ID : A_AAC-2` `Duration : 49 min 13 s` `Bit rate : 253 kb/s` `Channel(s) : 2 channels` `Channel layout : L R` `Sampling rate : 48.0 kHz` `Frame rate : 46.875 FPS (1024 SPF)` `Compression mode : Lossy` `Delay relative to video : -67 ms` `Stream size : 89.2 MiB (4%)` `Title : Webstream` `Default : No` `Forced : No` ---

File list