[neoHEVC] Appare-Ranman! [BD 1080p x265 HEVC AAC] [Dual Audio]

Category:
Date:
2021-05-27 14:40 UTC
Submitter:
Seeders:
8
Information:
Leechers:
2
File size:
4.8 GiB
Completed:
182
Info hash:
92958700d7967c2abdcf2bcfbb0b9f8f66a768f6
![](https://i.imgur.com/RBlGp48.png) *Join **[Discord](https://discord.gg/KYKYZUh)** for Current Projects, Encode-Requests and Seed-Request in case of no available seeds.* **Appare-Ranman!** *with `Dual Audio (Jpn/Eng)` and `Eng Subs` in `BD 1080p HEVC`* Encode of [JPBD] (x264 AVC PCM) to (x265 HEVC AAC) with added English audio tracks from [Golumpa] and English subtitles from [Mr.Deadpool]. *Side Note: I changed font styles, resampled for 1080p resolution and created styled OP/ED. I also tried some video filtering to tackle some of the banding the source had.* ![](https://i.imgur.com/4iegWLL.png) **[Trailer](https://www.youtube.com/watch?v=tjw4SHJ788A)** ![](https://i.imgur.com/3UxGuWB.png) ![](https://i.imgur.com/ZCtSawZ.png) **[MyAnimeList](https://myanimelist.net/anime/40532/Appare-Ranman)** --- **Synopsis** No dream is too big for Appare Sorrano, a socially-awkward inventor living in a small rural town in Japan in the late 19th century. Fascinated since childhood by the creation of steamships that can connect people across great distances, he's learned to make machines of all kinds from various scientific texts. His goal is to sail across the sea, beyond the sky, and ultimately, to the other side of the moon. Unfortunately, through a string of events, Appare finds himself stranded in the middle of the sea on his mini steamship. Floating alongside him is a skilled but cowardly samurai, Kosame Ishikki, who was tasked to keep his eccentric behavior in check. Just when all hope seems lost, a large steamship saves them and takes them to Los Angeles. With no money or plans, they decide to participate in the "Trans-America Wild Race," which gives Appare the chance to build his own automobile, and Kosame the opportunity to use the cash prize to return home. However, against rival racers and unknown challenges residing in the wilderness, just how far will this adventure take Appare and Kosame? ![](https://i1.lensdump.com/i/Z8GhAP.gif) --- **Language Options** I included two simple scripts that you can apply to these files to do the following (Windows only): 1. Change [Default Tracks]: Switches default tracks to *A:Japanese S:Dialog* 2. Make [Single Audio]: Throws out *English audio* and *Signs&Songs subtitles* tracks To apply these put all the video files into the *Language Options* folder and run the .bat file. <1> Changes existing files, <2> creates new ones in the *output* folder. --- **Comparison** *Open links, toggle with mouseclick and check title.* [![](https://i.imgur.com/hpWtKNE.png)](https://slow.pics/c/foOO2mjD) [![](https://i.imgur.com/6x67UU0.png)](https://slow.pics/c/11RObvbi) [![](https://i.imgur.com/VeyAMiR.png)](https://slow.pics/c/Qe6SPVpS) --- **Source** ?️ Video and JPN Audio: **[JPBD]** ?️ ENG Audio: **[[Golumpa]](https://nyaa.si/view/1281404)** ?️ Subtitles: **[[Mr.Deadpool]](https://nyaa.si/view/1313376)** ? *Subtitles Info: [Mr.Deadpool] Signs [Me] OP/ED - Format `ASS`* --- **Media Info** ? [Full Mediainfo incl. Encoder Settings](https://pastebin.com/7mX6TNCh) ``` General Unique ID : 145626559734722571166301199947154632507 (0x6D8EA7BBC8EDE44CD1C2026EAC3CAF3B) Complete name : Appare-Ranman! - S01E01.mkv Format : Matroska Format version : Version 4 File size : 398 MiB Duration : 23 min 42 s Overall bit rate : 2 346 kb/s Movie name : Appare-Ranman! - S01E01 Encoded date : UTC 2021-05-23 17:29:48 Writing application : mkvmerge v47.0.0 ('Black Flag') 64-bit Writing library : libebml v1.3.10 + libmatroska v1.5.2 Attachments : GANDHISANS-BOLD.OTF / GANDHISANS-BOLDITALIC.OTF / MyriadPro-Bold.otf / BestMarker.ttf / Brush Strokes.ttf / Brush-cut v2.ttf / Brushy_Cre.ttf / CALIBRI.TTF / ChickScrAOE.ttf / OpenSans-Semibold.ttf Video ID : 1 Format : HEVC Format/Info : High Efficiency Video Coding Format profile : Main 10@L4.1@High Codec ID : V_MPEGH/ISO/HEVC Duration : 23 min 42 s Bit rate : 1 723 kb/s Width : 1 920 pixels Height : 1 080 pixels Display aspect ratio : 16:9 Frame rate mode : Constant Frame rate : 23.976 (24000/1001) FPS Color space : YUV Chroma subsampling : 4:2:0 Bit depth : 10 bits Bits/(Pixel*Frame) : 0.035 Stream size : 292 MiB (73%) Writing library : x265 3.5+10+13-7c9bc0cb14:[Windows][GCC 10.2.0][64 bit] 10bit Encoding settings : <Check Link Above> Default : Yes Forced : No Color range : Limited Color primaries : BT.709 Transfer characteristics : BT.709 Matrix coefficients : BT.709 Audio #1 ID : 2 Format : AAC LC Format/Info : Advanced Audio Codec Low Complexity Codec ID : A_AAC-2 Duration : 23 min 40 s Bit rate : 253 kb/s Channel(s) : 2 channels Channel layout : L R Sampling rate : 48.0 kHz Frame rate : 46.875 FPS (1024 SPF) Compression mode : Lossy Delay relative to video : 6 ms Stream size : 42.9 MiB (11%) Title : Stereo - ENG (AAC) Language : English Default : Yes Forced : No Audio #2 ID : 3 Format : AAC LC Format/Info : Advanced Audio Codec Low Complexity Codec ID : A_AAC-2 Duration : 23 min 42 s Bit rate : 353 kb/s Channel(s) : 2 channels Channel layout : L R Sampling rate : 48.0 kHz Frame rate : 46.875 FPS (1024 SPF) Compression mode : Lossy Stream size : 59.1 MiB (15%) Title : Stereo - JPN (AAC) Language : Japanese Default : No Forced : No Text #1 ID : 4 Format : ASS Codec ID : S_TEXT/ASS Codec ID/Info : Advanced Sub Station Alpha Duration : 20 min 38 s Bit rate : 1 210 b/s Count of elements : 1564 Compression mode : Lossless Stream size : 183 KiB (0%) Title : Signs & Songs - ENG (ASS) Language : English Default : Yes Forced : No Text #2 ID : 5 Format : ASS Codec ID : S_TEXT/ASS Codec ID/Info : Advanced Sub Station Alpha Duration : 23 min 28 s Bit rate : 1 171 b/s Count of elements : 1878 Compression mode : Lossless Stream size : 201 KiB (0%) Title : Dialog - ENG (ASS) Language : English Default : No Forced : No Menu 00:00:00.000 : en:Intro 00:02:42.047 : en:OP 00:04:11.942 : en:Episode 00:22:10.067 : en:ED ```

File list

  • [neoHEVC] Appare-Ranman! [BD 1080p x265 HEVC AAC] [Dual Audio]
    • Language Options
      • 1. Change [Default Tracks].bat (283 Bytes)
      • 2. Make [Single Audio] Japanese.bat (124 Bytes)
      • mkvmerge.exe (9.6 MiB)
      • mkvpropedit.exe (5.1 MiB)
      • readme.txt (486 Bytes)
    • Appare-Ranman! - S01E01.mkv (397.5 MiB)
    • Appare-Ranman! - S01E02.mkv (354.4 MiB)
    • Appare-Ranman! - S01E03.mkv (351.3 MiB)
    • Appare-Ranman! - S01E04.mkv (397.3 MiB)
    • Appare-Ranman! - S01E05.mkv (325.8 MiB)
    • Appare-Ranman! - S01E06.mkv (365.1 MiB)
    • Appare-Ranman! - S01E07.mkv (346.8 MiB)
    • Appare-Ranman! - S01E08.mkv (363.7 MiB)
    • Appare-Ranman! - S01E09.mkv (384.0 MiB)
    • Appare-Ranman! - S01E10.mkv (449.1 MiB)
    • Appare-Ranman! - S01E11.mkv (342.5 MiB)
    • Appare-Ranman! - S01E12.mkv (394.8 MiB)
    • Appare-Ranman! - S01E13.mkv (393.7 MiB)
this show was promising but they thew in some totally stupid character defects and ruined it. dont bother.