[hchcsen] A Little Snow Fairy Sugar (Chicchana Yukitsukai Sugar) (1080p) (BDRip) (Dual Audio)

Category:
Date:
2021-05-18 10:18 UTC
Submitter:
Seeders:
4
Information:
No information.
Leechers:
2
File size:
13.3 GiB
Completed:
100
Info hash:
161bd0040472b8cefcc022f4d7180210ad6e8200
| |Sources | ------------- |:-------------:| | Video |[chuby](https://nyaa.si/view/1260382) | | Jp Audio |[chuby](https://nyaa.si/view/1260382) | | Eng Audio |[Exiled-Destiny](https://nyaa.si/view/924147) | |Eng Subtitles| [Exiled-Destiny](https://nyaa.si/view/924147)| General Unique ID : 215546959626472507088748135544181404253 (0xA228D59B046840F3F81D4B4BA406B25D) Complete name : X:\Upload\A Little Snow Fairy Sugar\A Little Snow Fairy Sugar S01E01 Saga meets Sugar.mkv Format : Matroska Format version : Version 4 / Version 2 File size : 486 MiB Duration : 24 min 12 s Overall bit rate : 2 805 kb/s Encoded date : UTC 2021-05-18 09:23:38 Writing application : mkvmerge v55.0.0 ('Waiting For Space') 64-bit Writing library : libebml v1.4.2 + libmatroska v1.6.4 Video ID : 1 Format : HEVC Format/Info : High Efficiency Video Coding Format profile : Format Range@L4.1@Main Codec ID : V_MPEGH/ISO/HEVC Duration : 24 min 11 s Bit rate : 2 417 kb/s Width : 1 920 pixels Height : 1 080 pixels Display aspect ratio : 16:9 Frame rate mode : Constant Frame rate : 59.940 (60000/1001) FPS Color space : YUV Chroma subsampling : 4:2:0 Bit depth : 12 bits Bits/(Pixel*Frame) : 0.019 Stream size : 418 MiB (86%) Writing library : x265 2.0+11-4be91b287e3c:[Windows][MSVC 1900][64 bit] 12bit Encoding settings : wpp / ctu=64 / min-cu-size=8 / max-tu-size=32 / tu-intra-depth=1 / tu-inter-depth=1 / me=1 / subme=2 / merange=57 / no-rect / no-amp / max-merge=2 / temporal-mvp / no-early-skip / rskip / rdpenalty=0 / no-tskip / no-tskip-fast / strong-intra-smoothing / no-lossless / no-cu-lossless / no-constrained-intra / no-fast-intra / open-gop / no-temporal-layers / interlace=0 / keyint=250 / min-keyint=25 / scenecut=40 / rc-lookahead=20 / lookahead-slices=6 / bframes=4 / bframe-bias=0 / b-adapt=2 / ref=3 / limit-refs=3 / no-limit-modes / weightp / no-weightb / aq-mode=1 / qg-size=32 / aq-strength=1.00 / cbqpoffs=0 / crqpoffs=0 / rd=3 / psy-rd=2.00 / rdoq-level=0 / psy-rdoq=0.00 / no-rd-refine / signhide / deblock=0:0 / sao / no-sao-non-deblock / b-pyramid / cutree / no-intra-refresh / rc=crf / crf=19.0 / qcomp=0.60 / qpmin=0 / qpmax=69 / qpstep=4 / ipratio=1.40 / pbratio=1.30 Default : Yes Forced : No Audio #1 ID : 2 Format : AAC LC Format/Info : Advanced Audio Codec Low Complexity Codec ID : A_AAC-2 Duration : 24 min 12 s Bit rate : 192 kb/s Channel(s) : 2 channels Channel layout : L R Sampling rate : 48.0 kHz Frame rate : 46.875 FPS (1024 SPF) Compression mode : Lossy Stream size : 33.2 MiB (7%) Language : Japanese Default : No Forced : No Audio #2 ID : 3 Format : AC-3 Format/Info : Audio Coding 3 Commercial name : Dolby Digital Codec ID : A_AC3 Duration : 24 min 11 s Bit rate mode : Constant Bit rate : 192 kb/s Channel(s) : 2 channels Channel layout : L R Sampling rate : 48.0 kHz Frame rate : 31.250 FPS (1536 SPF) Compression mode : Lossy Delay relative to video : 200 ms Stream size : 33.2 MiB (7%) Language : English Service kind : Complete Main Default : Yes Forced : No Text ID : 4 Format : UTF-8 Codec ID : S_TEXT/UTF8 Codec ID/Info : UTF-8 Plain Text Duration : 23 min 8 s Bit rate : 54 b/s Count of elements : 263 Stream size : 9.30 KiB (0%) Language : English Default : Yes Forced : No Menu 00:00:00.000 : en:プロローグ 00:01:30.023 : en:Aパート 00:13:36.015 : en:Bパート 00:22:09.995 : en:エンディング 00:23:40.018 : en:予告

File list

  • A Little Snow Fairy Sugar
    • A Little Snow Fairy Sugar S00E01 What's in the Heart (Part One).mkv (421.7 MiB)
    • A Little Snow Fairy Sugar S00E02 What's in the Heart (Part Two).mkv (421.1 MiB)
    • A Little Snow Fairy Sugar S01E01 Saga meets Sugar.mkv (485.6 MiB)
    • A Little Snow Fairy Sugar S01E02 An Itsy-Bitsy Roommate.mkv (542.9 MiB)
    • A Little Snow Fairy Sugar S01E03 Twinkle-Twinkle, Comfy-Warm, Puffy-Fluffy.mkv (520.6 MiB)
    • A Little Snow Fairy Sugar S01E04 Where are the Twinkles.mkv (562.7 MiB)
    • A Little Snow Fairy Sugar S01E05 The Elder Arrives!!.mkv (591.3 MiB)
    • A Little Snow Fairy Sugar S01E06 I Couldn't Say Sorry.mkv (503.2 MiB)
    • A Little Snow Fairy Sugar S01E07 Heart Joining Melody.mkv (554.4 MiB)
    • A Little Snow Fairy Sugar S01E08 The Shape of the Dreams.mkv (467.5 MiB)
    • A Little Snow Fairy Sugar S01E09 The Bear Pianist.mkv (470.5 MiB)
    • A Little Snow Fairy Sugar S01E10 A Backstage Happening.mkv (467.6 MiB)
    • A Little Snow Fairy Sugar S01E11 My Favorite Piano.mkv (508.0 MiB)
    • A Little Snow Fairy Sugar S01E12 Goodbye, Mr. Bear.mkv (486.4 MiB)
    • A Little Snow Fairy Sugar S01E13 A Twinkle Found!.mkv (534.8 MiB)
    • A Little Snow Fairy Sugar S01E14 Pepper and The Dream of Mr. Turtle.mkv (574.5 MiB)
    • A Little Snow Fairy Sugar S01E15 The Tiny Guest.mkv (593.3 MiB)
    • A Little Snow Fairy Sugar S01E16 The Faraway Town's First Snow.mkv (579.9 MiB)
    • A Little Snow Fairy Sugar S01E17 While Waiting For Sugar.mkv (556.1 MiB)
    • A Little Snow Fairy Sugar S01E18 Festival! Waffo!.mkv (581.0 MiB)
    • A Little Snow Fairy Sugar S01E19 One Memory For Two.mkv (524.1 MiB)
    • A Little Snow Fairy Sugar S01E20 The Vanished Promise.mkv (448.3 MiB)
    • A Little Snow Fairy Sugar S01E21 The Lonely Two.mkv (496.6 MiB)
    • A Little Snow Fairy Sugar S01E22 I'm Sorry, Sugar.mkv (471.0 MiB)
    • A Little Snow Fairy Sugar S01E23 Tiny Miracle at Muhlenburg.mkv (759.6 MiB)
    • A Little Snow Fairy Sugar S01E24 I'm Right Over Here.mkv (504.0 MiB)