[hchcsen] Emma A Victorian Romance (Eikoku Koi Monogatari Emma) (S01-S02) (1080p) (BDRip) (Dual Audio)

Category:
Date:
2021-05-18 10:17 UTC
Submitter:
Seeders:
3
Information:
No information.
Leechers:
1
File size:
26.2 GiB
Completed:
129
Info hash:
d36a28c6ac21697c1fa2a89370ac572d6475d316
| Source| | ------------- | | USBD| General Unique ID : 71407983533948534538177232050869695981 (0x35B8AD687D54100B96AE5F81A0CEF5ED) Complete name : X:\To Do\Emma A Victorian Romance\Season 1\Emma A Victorian Romance S01E01 The Gift.mkv Format : Matroska Format version : Version 4 / Version 2 File size : 893 MiB Duration : 24 min 10 s Overall bit rate mode : Variable Overall bit rate : 5 164 kb/s Encoded date : UTC 2021-05-18 08:38:01 Writing application : mkvmerge v55.0.0 ('Waiting For Space') 64-bit Writing library : libebml v1.4.2 + libmatroska v1.6.4 Video ID : 1 Format : HEVC Format/Info : High Efficiency Video Coding Format profile : Main@L4@Main Codec ID : V_MPEGH/ISO/HEVC Duration : 24 min 10 s Bit rate : 3 932 kb/s Width : 1 912 pixels Height : 1 078 pixels Display aspect ratio : 16:9 Frame rate mode : Constant Frame rate : 23.976 (24000/1001) FPS Color space : YUV Chroma subsampling : 4:2:0 Bit depth : 8 bits Bits/(Pixel*Frame) : 0.080 Stream size : 680 MiB (76%) Default : Yes Forced : No Color range : Limited Color primaries : BT.709 Transfer characteristics : BT.709 Matrix coefficients : BT.709 Audio #1 ID : 2 Format : FLAC Format/Info : Free Lossless Audio Codec Codec ID : A_FLAC Duration : 24 min 10 s Bit rate mode : Variable Bit rate : 596 kb/s Channel(s) : 2 channels Channel layout : L R Sampling rate : 48.0 kHz Frame rate : 10.417 FPS (4608 SPF) Bit depth : 16 bits Compression mode : Lossless Stream size : 103 MiB (12%) Language : English Default : No Forced : No Audio #2 ID : 3 Format : FLAC Format/Info : Free Lossless Audio Codec Codec ID : A_FLAC Duration : 24 min 10 s Bit rate mode : Variable Bit rate : 627 kb/s Channel(s) : 2 channels Channel layout : L R Sampling rate : 48.0 kHz Frame rate : 10.417 FPS (4608 SPF) Bit depth : 16 bits Compression mode : Lossless Stream size : 108 MiB (12%) Language : Japanese Default : No Forced : No Text #1 ID : 4 Format : PGS Muxing mode : zlib Codec ID : S_HDMV/PGS Codec ID/Info : Picture based subtitle format used on BDs/HD-DVDs Duration : 19 min 49 s Bit rate : 288 b/s Count of elements : 4 Stream size : 41.8 KiB (0%) Language : Multiple languages Default : No Forced : No Text #2 ID : 5 Format : PGS Muxing mode : zlib Codec ID : S_HDMV/PGS Codec ID/Info : Picture based subtitle format used on BDs/HD-DVDs Duration : 23 min 51 s Bit rate : 22.6 kb/s Count of elements : 447 Stream size : 3.86 MiB (0%) Language : English Default : No Forced : No Menu 00:00:00.000 : :Chapter 1 00:00:52.803 : :Chapter 2 00:02:22.476 : :Chapter 3 00:11:44.454 : :Chapter 4 00:22:23.926 : :Chapter 5 00:23:53.891 : :Chapter 6

File list

  • Emma A Victorian Romance
    • Season 1
      • Emma A Victorian Romance S01E01 The Gift.mkv (892.9 MiB)
      • Emma A Victorian Romance S01E02 Two Worlds.mkv (962.2 MiB)
      • Emma A Victorian Romance S01E03 Confession.mkv (912.3 MiB)
      • Emma A Victorian Romance S01E04 Mudie's.mkv (1009.1 MiB)
      • Emma A Victorian Romance S01E05 Dinner Party.mkv (825.4 MiB)
      • Emma A Victorian Romance S01E06 The Visit.mkv (827.2 MiB)
      • Emma A Victorian Romance S01E07 Crystal Palace.mkv (840.4 MiB)
      • Emma A Victorian Romance S01E08 Pocketwatch.mkv (791.8 MiB)
      • Emma A Victorian Romance S01E09 Alone.mkv (850.1 MiB)
      • Emma A Victorian Romance S01E10 Missing One Another.mkv (777.4 MiB)
      • Emma A Victorian Romance S01E11 Past.mkv (909.5 MiB)
      • Emma A Victorian Romance S01E12 Lily of the Valley.mkv (831.3 MiB)
    • Season 2
      • Emma A Victorian Romance S02E01 A New House.mkv (1.2 GiB)
      • Emma A Victorian Romance S02E02 Moonlight.mkv (1.3 GiB)
      • Emma A Victorian Romance S02E03 Cool Rain.mkv (1.2 GiB)
      • Emma A Victorian Romance S02E04 Courtship.mkv (1.3 GiB)
      • Emma A Victorian Romance S02E05 Embrace.mkv (1.2 GiB)
      • Emma A Victorian Romance S02E06 Success and Loss.mkv (1.3 GiB)
      • Emma A Victorian Romance S02E07 Evening Waves.mkv (1.2 GiB)
      • Emma A Victorian Romance S02E08 Whereabouts.mkv (1.2 GiB)
      • Emma A Victorian Romance S02E09 Resolution.mkv (1.2 GiB)
      • Emma A Victorian Romance S02E10 By the Window.mkv (1.2 GiB)
      • Emma A Victorian Romance S02E11 Time.mkv (1.2 GiB)
      • Emma A Victorian Romance S02E12 Flower.mkv (1.2 GiB)
    • Emma A Victorian Romance S00E01 Intermission.mkv (1.2 GiB)
Thank you so much!!!
Why would you encode in 8bit HEVC
Still waiting for a sub 10GB batch in dual audio. Anyway, as a fan, I was waiting for the English dub for the S1 for YEARS now, since only season 2 had a dub back then- don't know why. Now, Funimation made an English dub for both season. Which means, that there is a S1 dub finally and that S2 has actually two English dubs! And to be honest, the original S2 Eng dub is much better. So I´ll keep both versions and be at least thankful for the S1 dub.

npz

User
@Pinaka he's likely using a hardware encoder and 8-bit might be the limit or what it defaults to @excaliburzone Nozomi (Rightstuf) made the dub, not Funimation for this. Funi licensed it for streaming from them. The old dub you encountered was probably the one by Animax meant for S.East Asia

hchcsen (uploader)

User
Yeah 8bit was the default i am still pretty new to encoding stuff But just so I'm sure for the future is 10 bit better or worse?

hchcsen (uploader)

User
That is noted for future reference
Dammit, so many downloads and so little seeds. On my net, I seeded 80GB so far, and will continue for a while. Well, actually till one makes a smaller size of this. 26GB is too much for my drives.
As of now, 100 people downloaded, only 6 seed. Gratitude at its best. I'm on my 160GB seed so far...