[hchcsen] Lagrange - The Flower of Rin-ne (Rinne no Lagrange) (S01-S02+OVA) (1080p) (BDRip) (Dual Audio)

Category:
Date:
2021-05-18 10:09 UTC
Submitter:
Seeders:
3
Information:
No information.
Leechers:
1
File size:
49.5 GiB
Completed:
73
Info hash:
2220d37a8cae251db1d868996706695ec3af4b86
| |Sources | ------------- |:-------------:| | Video |[Snow-Raws](https://nyaa.si/view/1236739) | | Jp Audio |[Snow-Raws](https://nyaa.si/view/1236739) | | Eng Audio | Exiled-Destiny| |Eng Subtitles| [Coalgirls](https://nyaa.si/view/607359)| |Eng Subtitles S00E08| [Kuro](https://nyaa.si/view/885365)| --- ### Note All Specials are sub only ___ General Unique ID : 317257314488028831647692537175958525074 (0xEEAD8944B8603B08D074438281DE9492) Complete name : X:\Upload\Lagrange - The Flower of Rin-ne\Season 1\Lagrange - The Flower of Rin-ne S01E01 Welcome to Kamogawa!.mkv Format : Matroska Format version : Version 4 / Version 2 File size : 1.91 GiB Duration : 23 min 50 s Overall bit rate mode : Variable Overall bit rate : 11.5 Mb/s Encoded date : UTC 2021-05-18 08:22:06 Writing application : mkvmerge v55.0.0 ('Waiting For Space') 64-bit Writing library : libebml v1.4.2 + libmatroska v1.6.4 Attachments : disco.ttf / EurostileLTStd.otf / fansubBlock.ttf / Flora_for_Mexicans.ttf / Fontin_Sans_B_45b.otf / Fontin_Sans_BI_45b.otf / Fontin_Sans_I_45b.otf / Fontin_Sans_R_45b.otf / GosmickSans.ttf / intuitive.ttf / RaleighLTStd-Medium.otf Video ID : 1 Format : HEVC Format/Info : High Efficiency Video Coding Format profile : Main 10@L4@Main Codec ID : V_MPEGH/ISO/HEVC Duration : 23 min 41 s Bit rate : 9 810 kb/s Width : 1 920 pixels Height : 1 080 pixels Display aspect ratio : 16:9 Frame rate mode : Constant Frame rate : 23.976 (24000/1001) FPS Color space : YUV Chroma subsampling : 4:2:0 Bit depth : 10 bits Bits/(Pixel*Frame) : 0.197 Stream size : 1.62 GiB (85%) Writing library : x265 3.1+5-9c5c9cef2a86:[Windows][GCC 9.1.0][64 bit] 10bit Encoding settings : cpuid=1111039 / frame-threads=4 / numa-pools=16 / wpp / no-pmode / no-pme / no-psnr / no-ssim / log-level=2 / input-csp=1 / input-res=1920x1080 / interlace=0 / total-frames=0 / level-idc=0 / high-tier=1 / uhd-bd=0 / ref=4 / no-allow-non-conformance / no-repeat-headers / annexb / no-aud / no-hrd / info / hash=0 / no-temporal-layers / no-open-gop / min-keyint=1 / keyint=324 / gop-lookahead=0 / bframes=8 / b-adapt=2 / b-pyramid / bframe-bias=0 / rc-lookahead=80 / lookahead-slices=0 / scenecut=40 / radl=0 / no-splice / no-intra-refresh / ctu=32 / min-cu-size=8 / no-rect / no-amp / max-tu-size=32 / tu-inter-depth=2 / tu-intra-depth=2 / limit-tu=2 / rdoq-level=2 / dynamic-rd=0.00 / no-ssim-rd / signhide / no-tskip / nr-intra=0 / nr-inter=0 / no-constrained-intra / no-strong-intra-smoothing / max-merge=3 / limit-refs=2 / no-limit-modes / me=3 / subme=4 / merange=57 / temporal-mvp / weightp / no-weightb / no-analyze-src-pics / deblock=-1:-1 / no-sao / no-sao-non-deblock / rd=6 / early-skip / rskip / no-fast-intra / no-tskip-fast / no-cu-lossless / b-intra / no-splitrd-skip / rdpenalty=0 / psy-rd=2.00 / psy-rdoq=0.90 / no-rd-refine / no-lossless / cbqpoffs=-1 / crqpoffs=-1 / rc=crf / crf=15.7 / qcomp=0.65 / qpstep=4 / stats-write=0 / stats-read=0 / ipratio=1.40 / pbratio=1.30 / aq-mode=3 / aq-strength=0.90 / cutree / zone-count=0 / no-strict-cbr / qg-size=32 / no-rc-grain / qpmax=69 / qpmin=0 / no-const-vbv / sar=0 / overscan=0 / videoformat=5 / range=0 / colorprim=2 / transfer=2 / colormatrix=1 / chromaloc=0 / display-window=0cll=0,0 / min-luma=0 / max-luma=1023 / log2-max-poc-lsb=8 / vui-timing-info / vui-hrd-info / slices=1 / opt-qp-pps / opt-ref-list-length-pps / no-multi-pass-opt-rps / scenecut-bias=0.05 / no-opt-cu-delta-qp / no-aq-motion / no-hdr / no-hdr-opt / no-dhdr10-opt / no-idr-recovery-sei / analysis-reuse-level=5 / scale-factor=0 / refine-intra=0 / refine-inter=0 / refine-mv=0 / refine-ctu-distortion=0 / no-limit-sao / ctu-info=0 / no-lowpass-dct / refine-analysis-type=0 / copy-pic=1 / max-ausize-factor=1.0 / no-dynamic-refine / no-single-sei / no-hevc-aq / no-svt / no-field / qp-adaptation-range=1.00 Language : Japanese Default : Yes Forced : No Color range : Limited Matrix coefficients : BT.709 Audio #1 ID : 2 Format : FLAC Format/Info : Free Lossless Audio Codec Codec ID : A_FLAC Duration : 23 min 41 s Bit rate mode : Variable Bit rate : 1 505 kb/s Channel(s) : 2 channels Channel layout : L R Sampling rate : 48.0 kHz Frame rate : 11.719 FPS (4096 SPF) Bit depth : 24 bits Compression mode : Lossless Stream size : 255 MiB (13%) Writing library : libFLAC 1.2.1 (UTC 2007-09-17) Language : Japanese Default : Yes Forced : No Audio #2 ID : 3 Format : AC-3 Format/Info : Audio Coding 3 Commercial name : Dolby Digital Codec ID : A_AC3 Duration : 23 min 50 s Bit rate mode : Constant Bit rate : 224 kb/s Channel(s) : 2 channels Channel layout : L R Sampling rate : 48.0 kHz Frame rate : 31.250 FPS (1536 SPF) Compression mode : Lossy Stream size : 38.2 MiB (2%) Language : English Service kind : Complete Main Default : No Forced : No Text #1 ID : 4 Format : ASS Codec ID : S_TEXT/ASS Codec ID/Info : Advanced Sub Station Alpha Duration : 23 min 9 s Bit rate : 254 b/s Count of elements : 513 Compression mode : Lossless Stream size : 43.1 KiB (0%) Language : English Default : Yes Forced : No Text #2 ID : 5 Format : ASS Codec ID : S_TEXT/ASS Codec ID/Info : Advanced Sub Station Alpha Duration : 22 min 12 s Bit rate : 193 b/s Count of elements : 249 Compression mode : Lossless Stream size : 31.4 KiB (0%) Language : Multiple languages Default : No Forced : No Menu 00:00:00.000 : :Intro 00:01:15.993 : :Opening 00:02:45.999 : :Part A 00:11:07.041 : :Part B 00:21:50.100 : :Ending 00:23:20.065 : :Preview

File list

  • Lagrange - The Flower of Rin-ne
    • Season 1
      • Lagrange - The Flower of Rin-ne S01E01 Welcome to Kamogawa!.mkv (1.9 GiB)
      • Lagrange - The Flower of Rin-ne S01E02 Kamogawa Spirit.mkv (1.8 GiB)
      • Lagrange - The Flower of Rin-ne S01E03 Lan Blooms.mkv (2.0 GiB)
      • Lagrange - The Flower of Rin-ne S01E04 The Swimmers of Kamogawa.mkv (1.6 GiB)
      • Lagrange - The Flower of Rin-ne S01E05 The Man Who Came to Kamogawa.mkv (1.6 GiB)
      • Lagrange - The Flower of Rin-ne S01E06 The Wind, Fire, and Water Above Kamogawa.mkv (1.8 GiB)
      • Lagrange - The Flower of Rin-ne S01E07 Cloudy Skies, Followed by Kamogawa.mkv (1.9 GiB)
      • Lagrange - The Flower of Rin-ne S01E08 A Lolita in Kamogawa.mkv (1.6 GiB)
      • Lagrange - The Flower of Rin-ne S01E09 Departing Katsuura, Heading to Kamogawa.mkv (1.8 GiB)
      • Lagrange - The Flower of Rin-ne S01E10 Farewell, Kamogawa.mkv (1.7 GiB)
      • Lagrange - The Flower of Rin-ne S01E11 Kamogawa's Last Line of Defense.mkv (2.2 GiB)
      • Lagrange - The Flower of Rin-ne S01E12 Until We Meet Again, in Kamogawa.mkv (1.8 GiB)
    • Season 2
      • Lagrange - The Flower of Rin-ne S02E01 Welcome, Kamogawa!.mkv (1.8 GiB)
      • Lagrange - The Flower of Rin-ne S02E02 Mayhem on Kamogawa Beach.mkv (1.7 GiB)
      • Lagrange - The Flower of Rin-ne S02E03 The Kamogawa Experiment.mkv (1.6 GiB)
      • Lagrange - The Flower of Rin-ne S02E04 A Reunion in Kamogawa.mkv (1.5 GiB)
      • Lagrange - The Flower of Rin-ne S02E05 Orbiting Above the Summer Skies of Kamogawa.mkv (1.7 GiB)
      • Lagrange - The Flower of Rin-ne S02E06 May This Voice Reach Kamogawa.mkv (2.0 GiB)
      • Lagrange - The Flower of Rin-ne S02E07 A Vow to Kamogawa.mkv (1.6 GiB)
      • Lagrange - The Flower of Rin-ne S02E08 Kamogawa Balloons.mkv (1.5 GiB)
      • Lagrange - The Flower of Rin-ne S02E09 A White Kamogawa.mkv (1.6 GiB)
      • Lagrange - The Flower of Rin-ne S02E10 Betrayal Over The Skies of Kamogawa.mkv (2.0 GiB)
      • Lagrange - The Flower of Rin-ne S02E11 Beyond the Seas of Kamogawa.mkv (2.3 GiB)
      • Lagrange - The Flower of Rin-ne S02E12 Another Day in Kamogawa.mkv (2.2 GiB)
    • Lagrange - The Flower of Rin-ne S00E01 Special 01 Kamogawa Girl's Talk (Picture Drama 1).mkv (153.1 MiB)
    • Lagrange - The Flower of Rin-ne S00E02 Special 02 Kamogawa Barehanded Blade Block (Picture Drama 2).mkv (115.6 MiB)
    • Lagrange - The Flower of Rin-ne S00E03 Special 03 Kamogawa on the Poolside (Picture Drama 3).mkv (112.4 MiB)
    • Lagrange - The Flower of Rin-ne S00E04 Special 04 Kamogawa Ghost (Picture Drama 4).mkv (153.6 MiB)
    • Lagrange - The Flower of Rin-ne S00E05 Special 05 Kamogawa First Love Story (Picture Drama 5).mkv (176.3 MiB)
    • Lagrange - The Flower of Rin-ne S00E06 Special 06 Kamogawa Katsuura Days (Picture Drama 6).mkv (162.0 MiB)
    • Lagrange - The Flower of Rin-ne S00E07 Kamogawa Days (OVA).mkv (2.5 GiB)
    • Lagrange - The Flower of Rin-ne S00E08 Kamogawa Memoria (Recap).mkv (2.0 GiB)
    • Lagrange - The Flower of Rin-ne S00E09 Special 07 Kamogawa Farmers (Picture Drama 1).mkv (199.3 MiB)
    • Lagrange - The Flower of Rin-ne S00E10 Special 08 Bloody Kamogawa (Picture Drama 2).mkv (149.4 MiB)
    • Lagrange - The Flower of Rin-ne S00E11 Special 09 From Kamogawa To The U-Go Line (Picture Drama 3).mkv (94.9 MiB)
    • Lagrange - The Flower of Rin-ne S00E12 Special 10 Kamogawa's Sweet Day (Picture Drama 4).mkv (147.5 MiB)
    • Lagrange - The Flower of Rin-ne S00E13 Special 11 Memories Of The Kamogawa Jersey Club (Picture Drama 5).mkv (137.6 MiB)
    • Lagrange - The Flower of Rin-ne S00E14 Special 12 Kamogawa Women's Jersey Club Theme Song (Picture Drama 6).mkv (280.6 MiB)
Thank you! Underrated series IMO.
Thank you. This is a worthy replacement for Coalgirls. The colors and crispness seems better. And it is half the size.