[MagicStar] Nemesis EP04 [WEBDL] [1080p] [HULU] [JPN_SUB]

Category:
Date:
2021-05-17 12:23 UTC
Submitter:
Seeders:
5
Information:
Leechers:
3
File size:
1.3 GiB
Completed:
658
Info hash:
c7c7b52ca5c4796c5a4f2c3d8bf63a6bdac8a0e7
HD 1080p from HULU JAPAN. ![alt text](https://i.ibb.co/d2QrwvD/bd3c255f-70db-4b2f-9c23-ff8af7150f4c.jpg) ![alt text](https://i.ibb.co/m0SDdC1/Nemesis-EP04-1080p-HULU-WEB-DL-AAC2-0-H-264-Magic-Star-mkv.jpg) ``` General Unique ID : 241924159199290869470211567602444424902 (0xB600E5F388559B4C3526E14D8E6656C6) Complete name : Nemesis.EP04.1080p.HULU.WEB-DL.AAC2.0.H.264-MagicStar.mkv Format : Matroska Format version : Version 4 File size : 1.31 GiB Duration : 46 min 4 s Overall bit rate : 4 061 kb/s Encoded date : UTC 2021-05-16 21:13:01 Writing application : mkvmerge v50.0.0 ('Awakenings') 64-bit Writing library : libebml v1.4.0 + libmatroska v1.6.2 Cover : Yes Attachments : cover.png Video ID : 1 Format : AVC Format/Info : Advanced Video Codec Format profile : High@L4 Format settings : CABAC / 4 Ref Frames Format settings, CABAC : Yes Format settings, Reference fra : 4 frames Codec ID : V_MPEG4/ISO/AVC Duration : 46 min 4 s Bit rate : 3 933 kb/s Width : 1 920 pixels Height : 1 080 pixels Display aspect ratio : 16:9 Frame rate mode : Constant Frame rate : 29.970 (29970/1000) FPS Original frame rate : 29.970 (30000/1001) FPS Color space : YUV Chroma subsampling : 4:2:0 Bit depth : 8 bits Scan type : Progressive Bits/(Pixel*Frame) : 0.063 Stream size : 1.27 GiB (97%) Default : Yes Forced : No Color range : Limited Color primaries : BT.709 Transfer characteristics : BT.709 Matrix coefficients : BT.709 Audio ID : 2 Format : AAC LC Format/Info : Advanced Audio Codec Low Complexity Codec ID : A_AAC-2 Duration : 46 min 4 s Bit rate : 125 kb/s Channel(s) : 2 channels Channel layout : L R Sampling rate : 48.0 kHz Frame rate : 46.875 FPS (1024 SPF) Compression mode : Lossy Stream size : 41.3 MiB (3%) Language : Japanese Default : Yes Forced : No ```

File list

Thank you so much. It will be pleasure from now on.