[Tess] Rainbow Nisha Rokubou no Shichinin [BD 1920x1080 HEVC FLAC]

Category:
Date:
2021-05-16 19:09 UTC
Submitter:
Seeders:
7
Information:
No information.
Leechers:
0
File size:
45.6 GiB
Completed:
159
Info hash:
0558c26a553f335a06add36be082cc7e1a7766dd
[***Better encode available here***](https://nyaa.si/view/1387831) Video Source: [Xspitfire911](https://nyaa.si/view/1197567) Subs Source: [FroZen/Gao](https://nyaa.si/view/1360028) (Shifted +1s & retimed based on keyframes) Uploader Notes: **This should be the best release available.** I checked many encodes in an attempt to find a best and Xspitfire911 is by far the best source. The video is very transparent and retains pretty much all the grain present in the source BDMV. While bloated there realistically isn't a whole lot that can be done as the noise is 100% intentional and in my opinion a completely necessary piece to the atmosphere. There's a harsh drop in filesize on E14 this is however intentional as on the source BDMV that episode has a lot less noise compared to all the others. The subs were pulled from Gao's release. EruPii-Raws appears to have cut out 1.001s of black screen at the start of each episode. Both chapters and subs were offset by 24 frames to compensate for this. The timing on Gao's subs was initially pretty bad with very inconsistent timing on keyframes. I used prass' tpp and auto-retimed them to match keyframes. Gao's timing at the very least was still infinitely better than Judas who literally has over 8 frame gaps between keyframes vs Gao's 1 frame gaps. I also slightly reduced the sub scale as moving from 720p to 1080p video I noticed triple lines. I reduced the sub scale from 100% to 95% so the subs are ever so slightly smaller. As a minor change I also fixed Gao's annoying font spam. Each episode now only has the fonts it's script actually needs. Mediainfo: >General >Unique ID : 220847063767927452456444184917034766920 (0xA62598EA3ADBCB556D8E0CA436119248) >Complete name : [Tess] Rainbow Nisha Rokubou no Shichinin - 01 [BD 1920x1080 HEVC FLAC][FDCB9052].mkv >Format : Matroska >Format version : Version 4 >File size : 2.50 GiB >Duration : 22 min 32 s >Overall bit rate mode : Variable >Overall bit rate : 15.9 Mb/s >Writing application : mkvmerge v56.1.0 ('My Friend') 64-bit >Writing library : libebml v1.4.2 + libmatroska v1.6.3 >Attachments : RAINBOW.ttf / RAINBOWFACILITIES.ttf / CandelaBoldItalic.otf / calibriz.ttf > >Video >ID : 1 >Format : HEVC >Format/Info : High Efficiency Video Coding >Format profile : Main 10@L5.1@High >Codec ID : V_MPEGH/ISO/HEVC >Duration : 22 min 32 s >Bit rate : 15.1 Mb/s >Width : 1 920 pixels >Height : 1 080 pixels >Display aspect ratio : 16:9 >Frame rate mode : Constant >Frame rate : 23.976 (24000/1001) FPS >Color space : YUV >Chroma subsampling : 4:2:0 >Bit depth : 10 bits >Bits/(Pixel*Frame) : 0.304 >Stream size : 2.38 GiB (95%) >Writing library : x265 3.2.1+1-b5c86a64bbbe:[Windows][GCC 8.3.0][64 bit] 10bit >Encoding settings : cpuid=1111039 / frame-threads=3 / numa-pools=12 / wpp / no-pmode / no-pme / no-psnr / no-ssim / log-level=2 / input-csp=1 / input-res=1920x1080 / interlace=0 / total-frames=0 / level-idc=51 / high-tier=1 / uhd-bd=0 / ref=5 / no-allow-non-conformance / no-repeat-headers / annexb / no-aud / no-hrd / info / hash=0 / no-temporal-layers / open-gop / min-keyint=24 / keyint=240 / gop-lookahead=0 / bframes=8 / b-adapt=2 / b-pyramid / bframe-bias=0 / rc-lookahead=60 / lookahead-slices=4 / scenecut=40 / radl=0 / no-splice / no-intra-refresh / ctu=64 / min-cu-size=8 / rect / no-amp / max-tu-size=32 / tu-inter-depth=1 / tu-intra-depth=1 / limit-tu=0 / rdoq-level=2 / dynamic-rd=0.00 / no-ssim-rd / signhide / no-tskip / nr-intra=0 / nr-inter=0 / no-constrained-intra / strong-intra-smoothing / max-merge=3 / limit-refs=3 / limit-modes / me=3 / subme=3 / merange=57 / temporal-mvp / no-hme / weightp / no-weightb / no-analyze-src-pics / deblock=1:1 / sao / no-sao-non-deblock / rd=5 / selective-sao=4 / no-early-skip / rskip / no-fast-intra / no-tskip-fast / no-cu-lossless / no-b-intra / no-splitrd-skip / rdpenalty=0 / psy-rd=0.80 / psy-rdoq=1.00 / no-rd-refine / no-lossless / cbqpoffs=0 / crqpoffs=0 / rc=crf / crf=17.0 / qcomp=0.60 / qpstep=4 / stats-write=0 / stats-read=0 / vbv-maxrate=160000 / vbv-bufsize=160000 / vbv-init=0.9 / crf-max=0.0 / crf-min=0.0 / ipratio=1.40 / pbratio=1.30 / aq-mode=3 / aq-strength=1.00 / cutree / zone-count=0 / no-strict-cbr / qg-size=32 / no-rc-grain / qpmax=69 / qpmin=0 / no-const-vbv / sar=1 / overscan=0 / videoformat=5 / range=0 / colorprim=1 / transfer=1 / colormatrix=1 / chromaloc=0 / display-window=0 / cll=0,0 / min-luma=0 / max-luma=1023 / log2-max-poc-lsb=8 / vui-timing-info / vui-hrd-info / slices=1 / no-opt-qp-pps / no-opt-ref-list-length-pps / no-multi-pass-opt-rps / scenecut-bias=0.05 / no-opt-cu-delta-qp / no-aq-motion / no-hdr / no-hdr-opt / no-dhdr10-opt / no-idr-recovery-sei / analysis-reuse-level=5 / scale-factor=0 / refine-intra=0 / refine-inter=0 / refine-mv=1 / refine-ctu-distortion=0 / no-limit-sao / ctu-info=0 / no-lowpass-dct / refine-analysis-type=0 / copy-pic=1 / max-ausize-factor=1.0 / no-dynamic-refine / no-single-sei / no-hevc-aq / no-svt / no-field / qp-adaptation-range=1.00 >Default : Yes >Forced : No >Color range : Limited >Color primaries : BT.709 >Transfer characteristics : BT.709 >Matrix coefficients : BT.709 > >Audio >ID : 2 >Format : FLAC >Format/Info : Free Lossless Audio Codec >Codec ID : A_FLAC >Duration : 22 min 32 s >Bit rate mode : Variable >Bit rate : 743 kb/s >Channel(s) : 2 channels >Channel layout : L R >Sampling rate : 48.0 kHz >Frame rate : 10.417 FPS (4608 SPF) >Bit depth : 16 bits >Compression mode : Lossless >Stream size : 120 MiB (5%) >Title : Stereo >Language : Japanese >Default : Yes >Forced : No > >Text >ID : 3 >Format : ASS >Codec ID : S_TEXT/ASS >Codec ID/Info : Advanced Sub Station Alpha >Duration : 22 min 25 s >Bit rate : 88 b/s >Count of elements : 236 >Compression mode : Lossless >Stream size : 14.6 KiB (0%) >Language : English >Default : Yes >Forced : No > >Menu >00:00:00.000 : Intro >00:00:58.058 : Opening >00:02:08.045 : Part A >00:11:40.033 : Part B >00:21:11.395 : Ending >00:22:21.048 : Preview > >

File list

  • [Tess] Rainbow Nisha Rokubou no Shichinin [BD 1920x1080 HEVC FLAC]
    • [Tess] Rainbow Nisha Rokubou no Shichinin - 01 [BD 1920x1080 HEVC FLAC][FDCB9052].mkv (2.5 GiB)
    • [Tess] Rainbow Nisha Rokubou no Shichinin - 02 [BD 1920x1080 HEVC FLAC][88FD1655].mkv (2.1 GiB)
    • [Tess] Rainbow Nisha Rokubou no Shichinin - 03 [BD 1920x1080 HEVC FLAC][9DA6A561].mkv (2.1 GiB)
    • [Tess] Rainbow Nisha Rokubou no Shichinin - 04 [BD 1920x1080 HEVC FLAC][76424A85].mkv (2.0 GiB)
    • [Tess] Rainbow Nisha Rokubou no Shichinin - 05 [BD 1920x1080 HEVC FLAC][C4780E58].mkv (2.1 GiB)
    • [Tess] Rainbow Nisha Rokubou no Shichinin - 06 [BD 1920x1080 HEVC FLAC][2EA0A8B6].mkv (1.9 GiB)
    • [Tess] Rainbow Nisha Rokubou no Shichinin - 07 [BD 1920x1080 HEVC FLAC][C725B3EA].mkv (1.8 GiB)
    • [Tess] Rainbow Nisha Rokubou no Shichinin - 08 [BD 1920x1080 HEVC FLAC][1CB247E3].mkv (2.1 GiB)
    • [Tess] Rainbow Nisha Rokubou no Shichinin - 09 [BD 1920x1080 HEVC FLAC][BCD46537].mkv (2.0 GiB)
    • [Tess] Rainbow Nisha Rokubou no Shichinin - 10 [BD 1920x1080 HEVC FLAC][FEC4AB59].mkv (1.8 GiB)
    • [Tess] Rainbow Nisha Rokubou no Shichinin - 11 [BD 1920x1080 HEVC FLAC][18221F61].mkv (1.6 GiB)
    • [Tess] Rainbow Nisha Rokubou no Shichinin - 12 [BD 1920x1080 HEVC FLAC][B30F58F7].mkv (1.8 GiB)
    • [Tess] Rainbow Nisha Rokubou no Shichinin - 13 [BD 1920x1080 HEVC FLAC][7960D4FA].mkv (2.0 GiB)
    • [Tess] Rainbow Nisha Rokubou no Shichinin - 14 [BD 1920x1080 HEVC FLAC][932E8C54].mkv (959.4 MiB)
    • [Tess] Rainbow Nisha Rokubou no Shichinin - 15 [BD 1920x1080 HEVC FLAC][56D26540].mkv (1.6 GiB)
    • [Tess] Rainbow Nisha Rokubou no Shichinin - 16 [BD 1920x1080 HEVC FLAC][F618B9A0].mkv (1.4 GiB)
    • [Tess] Rainbow Nisha Rokubou no Shichinin - 17 [BD 1920x1080 HEVC FLAC][8932D940].mkv (1.7 GiB)
    • [Tess] Rainbow Nisha Rokubou no Shichinin - 18 [BD 1920x1080 HEVC FLAC][0AFEA93C].mkv (1.7 GiB)
    • [Tess] Rainbow Nisha Rokubou no Shichinin - 19 [BD 1920x1080 HEVC FLAC][899F71ED].mkv (2.0 GiB)
    • [Tess] Rainbow Nisha Rokubou no Shichinin - 20 [BD 1920x1080 HEVC FLAC][06FD7E3F].mkv (1.4 GiB)
    • [Tess] Rainbow Nisha Rokubou no Shichinin - 21 [BD 1920x1080 HEVC FLAC][CA67AAA6].mkv (1.6 GiB)
    • [Tess] Rainbow Nisha Rokubou no Shichinin - 22 [BD 1920x1080 HEVC FLAC][1C457483].mkv (1.6 GiB)
    • [Tess] Rainbow Nisha Rokubou no Shichinin - 23 [BD 1920x1080 HEVC FLAC][5BDD370D].mkv (1.7 GiB)
    • [Tess] Rainbow Nisha Rokubou no Shichinin - 24 [BD 1920x1080 HEVC FLAC][F189722E].mkv (1.1 GiB)
    • [Tess] Rainbow Nisha Rokubou no Shichinin - 25 [BD 1920x1080 HEVC FLAC][B45073C5].mkv (1.4 GiB)
    • [Tess] Rainbow Nisha Rokubou no Shichinin - 26 [BD 1920x1080 HEVC FLAC][D6596CCB].mkv (1.8 GiB)
well the encoders could probably save a lot of filesize by downscaling to the native resolution of 720p
" EruPii-Raws appears to have cut out 1.001s of black screen at the start of each episode." Yep, I don't want one second of black screen at the beginning of every episode in my encodes. ?
i thought everyone did that tbh

Tesseract (uploader)

User
@herkz are you 100% sure it's native 720p? At least according to the getnative results and [anibin](https://anibin.blogspot.com/2010/04/rainbow-1.html) it seems like descaling would be too risky. Anibin claims, assuming google translate was accurate enough, that the grain makes it almost impossible to determine the native resolution. The getnative output also seems completely fucked. On an undenoised input it seems to suggest native 1080p but then on a denoised input (waifu2x level 2 denoise) it seems to be literally all over the place. While I don't think it's native 1080p I think descaling would be a bad call as it's pretty much impossible to determine the correct kernel. [Here's a link to the getnative graphs and screenshot used as a source.](https://lensdump.com/a/IupsF/sub) I tried using other screenshots and they all produce similar results.
Nobody said something about descaling...
yeah, you don't have to descale. you can just downscale with spline36 or whatever. and i doubt there's a single TV anime from 2010 that was made at 1080p. especially when you consider madhouse (the studio who made this anime) still make anime at 720p to this day.

Tesseract (uploader)

User
Thanks for the info herkz. I'll probably get around to doing my own non-denoised and downscaled encodes of this then at some point.
For this project, because of the massive grain, I would agree that downscaling to 720p is almost necessary. You'll cut out a lot of "fake" detail that way and not a lot of real detail.

Tesseract (uploader)

User
Currently sourced the blu-rays and am doing my own downscaled encodes. Current filesizes are hovering around 1.8~2gb. Should be similar in size to this release but without any denoising applied at all and should be pretty much 1 to 1 with a remux at 1/3 the filesize. Encodes speeds are at around 0.275x speed so looking at around 36 hours encode time. So expect another release of this in a few days.
its not that big :D personally i like to avoid downscaled upscales but the descaled stuff is fine. just feels like the quality will suffer for no reason
Thanks for this and will sure wait for your encode if you happen to do it.

Tesseract (uploader)

User
New encode is up looks better and at a slightly smaller file size. https://nyaa.si/view/1387831